  0
SECTION
  2
HEADER
  9
$ACADVER
  1
AC1018
  9
$ACADMAINTVER
 70
    76
  9
$DWGCODEPAGE
  3
ANSI_932
  9
$INSBASE
 10
0.0
 20
0.0
 30
0.0
  9
$EXTMIN
 10
3014.721242288517
 20
-34066.12086291645
 30
0.0
  9
$EXTMAX
 10
39061.81563692794
 20
-4611.279051866702
 30
0.0
  9
$LIMMIN
 10
0.0
 20
0.0
  9
$LIMMAX
 10
420.0
 20
297.0
  9
$ORTHOMODE
 70
     1
  9
$REGENMODE
 70
     1
  9
$FILLMODE
 70
     1
  9
$QTEXTMODE
 70
     0
  9
$MIRRTEXT
 70
     1
  9
$LTSCALE
 40
30.0
  9
$ATTMODE
 70
     1
  9
$TEXTSIZE
 40
2.5
  9
$TRACEWID
 40
1.0
  9
$TEXTSTYLE
  7
STANDARD
  9
$CLAYER
  8
TANK
  9
$CELTYPE
  6
CONTINUOUS
  9
$CECOLOR
 62
   256
  9
$CELTSCALE
 40
100.0
  9
$DISPSILH
 70
     0
  9
$DIMSCALE
 40
150.0
  9
$DIMASZ
 40
2.5
  9
$DIMEXO
 40
2.0
  9
$DIMDLI
 40
3.75
  9
$DIMRND
 40
0.0
  9
$DIMDLE
 40
0.0
  9
$DIMEXE
 40
1.25
  9
$DIMTP
 40
0.0
  9
$DIMTM
 40
0.0
  9
$DIMTXT
 40
2.5
  9
$DIMCEN
 40
2.5
  9
$DIMTSZ
 40
0.0
  9
$DIMTOL
 70
     0
  9
$DIMLIM
 70
     0
  9
$DIMTIH
 70
     0
  9
$DIMTOH
 70
     0
  9
$DIMSE1
 70
     0
  9
$DIMSE2
 70
     0
  9
$DIMTAD
 70
     1
  9
$DIMZIN
 70
     8
  9
$DIMBLK
  1

  9
$DIMASO
 70
     1
  9
$DIMSHO
 70
     1
  9
$DIMPOST
  1

  9
$DIMAPOST
  1

  9
$DIMALT
 70
     0
  9
$DIMALTD
 70
     4
  9
$DIMALTF
 40
0.0394
  9
$DIMLFAC
 40
1.0
  9
$DIMTOFL
 70
     1
  9
$DIMTVP
 40
0.0
  9
$DIMTIX
 70
     0
  9
$DIMSOXD
 70
     0
  9
$DIMSAH
 70
     0
  9
$DIMBLK1
  1

  9
$DIMBLK2
  1

  9
$DIMSTYLE
  2
STANDARD_WS
  9
$DIMCLRD
 70
     0
  9
$DIMCLRE
 70
     0
  9
$DIMCLRT
 70
     0
  9
$DIMTFAC
 40
1.0
  9
$DIMGAP
 40
0.625
  9
$DIMJUST
 70
     0
  9
$DIMSD1
 70
     0
  9
$DIMSD2
 70
     0
  9
$DIMTOLJ
 70
     1
  9
$DIMTZIN
 70
     0
  9
$DIMALTZ
 70
     0
  9
$DIMALTTZ
 70
     0
  9
$DIMUPT
 70
     0
  9
$DIMDEC
 70
     1
  9
$DIMTDEC
 70
     4
  9
$DIMALTU
 70
     8
  9
$DIMALTTD
 70
     4
  9
$DIMTXSTY
  7
STANDARD
  9
$DIMAUNIT
 70
     0
  9
$DIMADEC
 70
     0
  9
$DIMALTRND
 40
0.0
  9
$DIMAZIN
 70
     0
  9
$DIMDSEP
 70
    46
  9
$DIMATFIT
 70
     3
  9
$DIMFRAC
 70
     0
  9
$DIMLDRBLK
  1

  9
$DIMLUNIT
 70
     2
  9
$DIMLWD
 70
    -2
  9
$DIMLWE
 70
    -2
  9
$DIMTMOVE
 70
     0
  9
$LUNITS
 70
     2
  9
$LUPREC
 70
     4
  9
$SKETCHINC
 40
1.0
  9
$FILLETRAD
 40
120.0
  9
$AUNITS
 70
     0
  9
$AUPREC
 70
     0
  9
$MENU
  1
acad
  9
$ELEVATION
 40
0.0
  9
$PELEVATION
 40
0.0
  9
$THICKNESS
 40
0.0
  9
$LIMCHECK
 70
     0
  9
$CHAMFERA
 40
0.0
  9
$CHAMFERB
 40
0.0
  9
$CHAMFERC
 40
20.0
  9
$CHAMFERD
 40
0.0
  9
$SKPOLY
 70
     0
  9
$TDCREATE
 40
2451403.401635648
  9
$TDUCREATE
 40
2451403.026635648
  9
$TDUPDATE
 40
2458095.651563207
  9
$TDUUPDATE
 40
2458095.276563206
  9
$TDINDWG
 40
5.8056129282
  9
$TDUSRTIMER
 40
5.8056129282
  9
$USRTIMER
 70
     1
  9
$ANGBASE
 50
0.0
  9
$ANGDIR
 70
     0
  9
$PDMODE
 70
     3
  9
$PDSIZE
 40
0.0
  9
$PLINEWID
 40
0.0
  9
$SPLFRAME
 70
     0
  9
$SPLINETYPE
 70
     6
  9
$SPLINESEGS
 70
     8
  9
$HANDSEED
  5
4B83
  9
$SURFTAB1
 70
     6
  9
$SURFTAB2
 70
     6
  9
$SURFTYPE
 70
     6
  9
$SURFU
 70
     6
  9
$SURFV
 70
     6
  9
$UCSBASE
  2

  9
$UCSNAME
  2

  9
$UCSORG
 10
0.0
 20
0.0
 30
0.0
  9
$UCSXDIR
 10
1.0
 20
0.0
 30
0.0
  9
$UCSYDIR
 10
0.0
 20
1.0
 30
0.0
  9
$UCSORTHOREF
  2

  9
$UCSORTHOVIEW
 70
     0
  9
$UCSORGTOP
 10
0.0
 20
0.0
 30
0.0
  9
$UCSORGBOTTOM
 10
0.0
 20
0.0
 30
0.0
  9
$UCSORGLEFT
 10
0.0
 20
0.0
 30
0.0
  9
$UCSORGRIGHT
 10
0.0
 20
0.0
 30
0.0
  9
$UCSORGFRONT
 10
0.0
 20
0.0
 30
0.0
  9
$UCSORGBACK
 10
0.0
 20
0.0
 30
0.0
  9
$PUCSBASE
  2

  9
$PUCSNAME
  2

  9
$PUCSORG
 10
0.0
 20
0.0
 30
0.0
  9
$PUCSXDIR
 10
1.0
 20
0.0
 30
0.0
  9
$PUCSYDIR
 10
0.0
 20
1.0
 30
0.0
  9
$PUCSORTHOREF
  2

  9
$PUCSORTHOVIEW
 70
     0
  9
$PUCSORGTOP
 10
0.0
 20
0.0
 30
0.0
  9
$PUCSORGBOTTOM
 10
0.0
 20
0.0
 30
0.0
  9
$PUCSORGLEFT
 10
0.0
 20
0.0
 30
0.0
  9
$PUCSORGRIGHT
 10
0.0
 20
0.0
 30
0.0
  9
$PUCSORGFRONT
 10
0.0
 20
0.0
 30
0.0
  9
$PUCSORGBACK
 10
0.0
 20
0.0
 30
0.0
  9
$USERI1
 70
     0
  9
$USERI2
 70
     0
  9
$USERI3
 70
     0
  9
$USERI4
 70
     0
  9
$USERI5
 70
     0
  9
$USERR1
 40
0.0
  9
$USERR2
 40
0.0
  9
$USERR3
 40
0.0
  9
$USERR4
 40
0.0
  9
$USERR5
 40
0.0
  9
$WORLDVIEW
 70
     1
  9
$SHADEDGE
 70
     3
  9
$SHADEDIF
 70
    70
  9
$TILEMODE
 70
     0
  9
$MAXACTVP
 70
    48
  9
$PINSBASE
 10
0.0
 20
0.0
 30
0.0
  9
$PLIMCHECK
 70
     0
  9
$PEXTMIN
 10
0.9738180077063134
 20
2.470191766602852
 30
-0.0000000349181948
  9
$PEXTMAX
 10
593.0383076831263
 20
418.0295596601772
 30
0.0000000814935746
  9
$PLIMMIN
 10
-11.35472613091826
 20
-9.841435608498901
  9
$PLIMMAX
 10
611.1132035664894
 20
430.3411849855193
  9
$UNITMODE
 70
     0
  9
$VISRETAIN
 70
     1
  9
$PLINEGEN
 70
     0
  9
$PSLTSCALE
 70
     1
  9
$TREEDEPTH
 70
  3020
  9
$CMLSTYLE
  2
STANDARD
  9
$CMLJUST
 70
     0
  9
$CMLSCALE
 40
20.0
  9
$PROXYGRAPHICS
 70
     1
  9
$MEASUREMENT
 70
     1
  9
$CELWEIGHT
370
    -1
  9
$ENDCAPS
280
     0
  9
$JOINSTYLE
280
     0
  9
$LWDISPLAY
290
     0
  9
$INSUNITS
 70
     0
  9
$HYPERLINKBASE
  1

  9
$STYLESHEET
  1

  9
$XEDIT
290
     1
  9
$CEPSNTYPE
380
     0
  9
$PSTYLEMODE
290
     1
  9
$FINGERPRINTGUID
  2
{AC179195-C51A-4F08-949E-D3DC8F1CE79C}
  9
$VERSIONGUID
  2
{506FE6D5-669D-49D3-A9BC-0FBBC24B9FC6}
  9
$EXTNAMES
290
     1
  9
$PSVPSCALE
 40
0.0
  9
$OLESTARTUP
290
     0
  9
$SORTENTS
280
    96
  9
$INDEXCTL
280
     0
  9
$HIDETEXT
280
     0
  9
$XCLIPFRAME
290
     0
  9
$HALOGAP
280
     0
  9
$OBSCOLOR
 70
   257
  9
$OBSLTYPE
280
     0
  9
$INTERSECTIONDISPLAY
280
     0
  9
$INTERSECTIONCOLOR
 70
   257
  9
$DIMASSOC
280
     1
  9
$PROJECTNAME
  1

  0
ENDSEC
  0
SECTION
  2
CLASSES
  0
CLASS
  1
DICTIONARYVAR
  2
AcDbDictionaryVar
  3
ObjectDBX Classes
 90
        0
 91
        3
280
     0
281
     0
  0
CLASS
  1
ACDBDICTIONARYWDFLT
  2
AcDbDictionaryWithDefault
  3
ObjectDBX Classes
 90
        0
 91
        1
280
     0
281
     0
  0
CLASS
  1
TABLESTYLE
  2
AcDbTableStyle
  3
ObjectDBX Classes
 90
     2047
 91
        1
280
     0
281
     0
  0
ENDSEC
  0
SECTION
  2
TABLES
  0
TABLE
  2
VPORT
  5
8
330
0
100
AcDbSymbolTable
 70
     1
  0
VPORT
  5
4AD4
330
8
100
AcDbSymbolTableRecord
100
AcDbViewportTableRecord
  2
*Active
 70
     0
 10
0.0
 20
0.0
 11
1.0
 21
1.0
 12
33875.13169860806
 22
-30543.16170806601
 13
0.0
 23
0.0
 14
10.0
 24
10.0
 15
10.0
 25
10.0
 16
0.0
 26
0.0
 36
1.0
 17
0.0
 27
0.0
 37
0.0
 40
25208.88226056501
 41
1.515974440894568
 42
50.0
 43
0.0
 44
0.0
 50
0.0
 51
0.0
 71
     0
 72
   100
 73
     1
 74
     1
 75
     0
 76
     0
 77
     0
 78
     0
281
     0
 65
     1
110
0.0
120
0.0
130
0.0
111
1.0
121
0.0
131
0.0
112
0.0
122
1.0
132
0.0
 79
     0
146
0.0
  0
ENDTAB
  0
TABLE
  2
LTYPE
  5
5
330
0
100
AcDbSymbolTable
 70
     6
  0
LTYPE
  5
12
330
5
100
AcDbSymbolTableRecord
100
AcDbLinetypeTableRecord
  2
BYBLOCK
 70
     0
  3

 72
    65
 73
     0
 40
0.0
  0
LTYPE
  5
13
330
5
100
AcDbSymbolTableRecord
100
AcDbLinetypeTableRecord
  2
BYLAYER
 70
     0
  3

 72
    65
 73
     0
 40
0.0
  0
LTYPE
  5
14
330
5
100
AcDbSymbolTableRecord
100
AcDbLinetypeTableRecord
  2
CONTINUOUS
 70
     0
  3
Solid line
 72
    65
 73
     0
 40
0.0
  0
LTYPE
  5
190
330
5
100
AcDbSymbolTableRecord
100
AcDbLinetypeTableRecord
  2
HIDDEN
 70
     0
  3
Hidden __ __ __ __ __ __ __ __ __ __ __ __ __ _
 72
    65
 73
     2
 40
9.524999999999998
 49
6.349999999999999
 74
     0
 49
-3.174999999999999
 74
     0
  0
LTYPE
  5
191
330
5
100
AcDbSymbolTableRecord
100
AcDbLinetypeTableRecord
  2
CENTER
 70
     0
  3
Center ____ _ ____ _ ____ _ ____ _ ____ _ ____
 72
    65
 73
     4
 40
50.8
 49
31.75
 74
     0
 49
-6.349999999999999
 74
     0
 49
6.349999999999999
 74
     0
 49
-6.349999999999999
 74
     0
  0
LTYPE
  5
192
330
5
100
AcDbSymbolTableRecord
100
AcDbLinetypeTableRecord
  2
CENTER2
 70
     0
  3
Center (.5x) ___ _ ___ _ ___ _ ___ _ ___ _ ___
 72
    65
 73
     4
 40
28.575
 49
19.05
 74
     0
 49
-3.174999999999999
 74
     0
 49
3.174999999999999
 74
     0
 49
-3.174999999999999
 74
     0
  0
LTYPE
  5
1C16
330
5
100
AcDbSymbolTableRecord
100
AcDbLinetypeTableRecord
  2
DASHED
 70
     0
  3
Dashed __ __ __ __ __ __ __ __ __ __ __ __ __ _
 72
    65
 73
     2
 40
19.05
 49
12.7
 74
     0
 49
-6.349999999999999
 74
     0
  0
LTYPE
  5
43CB
330
5
100
AcDbSymbolTableRecord
100
AcDbLinetypeTableRecord
  2
HIDDEN2
 70
     0
  3
Hidden (.5x) _ _ _ _ _ _ _ _ _ _ _ _ _ _ _ _ _
 72
    65
 73
     2
 40
4.762499999999999
 49
3.174999999999999
 74
     0
 49
-1.587499999999999
 74
     0
  0
ENDTAB
  0
TABLE
  2
LAYER
  5
2
330
0
100
AcDbSymbolTable
 70
    10
  0
LAYER
  5
E
330
2
100
AcDbSymbolTableRecord
100
AcDbLayerTableRecord
  2
0
 70
     0
 62
     7
  6
CONTINUOUS
370
    -3
390
49D1
  0
LAYER
  5
38
330
2
100
AcDbSymbolTableRecord
100
AcDbLayerTableRecord
  2
DEFPOINTS
 70
     0
 62
     7
  6
CONTINUOUS
290
     0
370
    -3
390
49D1
  0
LAYER
  5
39
330
2
100
AcDbSymbolTableRecord
100
AcDbLayerTableRecord
  2
OBJECT
 70
     0
 62
     7
  6
CONTINUOUS
370
    -3
390
49D1
  0
LAYER
  5
1AD
330
2
100
AcDbSymbolTableRecord
100
AcDbLayerTableRecord
  2
ZUWAKU
 70
     0
 62
     7
  6
CONTINUOUS
370
    -3
390
49D1
  0
LAYER
  5
1AE
330
2
100
AcDbSymbolTableRecord
100
AcDbLayerTableRecord
  2
CRANE
 70
     0
 62
     7
  6
CONTINUOUS
370
    -3
390
49D1
  0
LAYER
  5
177B
330
2
100
AcDbSymbolTableRecord
100
AcDbLayerTableRecord
  2
FS
 70
     0
 62
     7
  6
CONTINUOUS
370
    -3
390
49D1
  0
LAYER
  5
21DF
330
2
100
AcDbSymbolTableRecord
100
AcDbLayerTableRecord
  2
DIM
 70
     0
 62
     7
  6
CONTINUOUS
370
    -3
390
49D1
  0
LAYER
  5
4A4A
330
2
100
AcDbSymbolTableRecord
100
AcDbLayerTableRecord
  2
LONG
 70
     0
 62
     7
  6
CONTINUOUS
370
    -3
390
49D1
  0
LAYER
  5
4A4B
330
2
100
AcDbSymbolTableRecord
100
AcDbLayerTableRecord
  2
BHD
 70
     0
 62
     7
  6
CONTINUOUS
370
    -3
390
49D1
  0
LAYER
  5
4AB9
330
2
100
AcDbSymbolTableRecord
100
AcDbLayerTableRecord
  2
TANK
 70
     0
 62
     7
  6
CONTINUOUS
370
    -3
390
49D1
  0
ENDTAB
  0
TABLE
  2
STYLE
  5
3
330
0
100
AcDbSymbolTable
 70
     4
  0
STYLE
  5
F
330
3
100
AcDbSymbolTableRecord
100
AcDbTextStyleTableRecord
  2
STANDARD
 70
     0
 40
0.0
 41
1.0
 50
0.0
 71
     0
 42
2.5
  3
txt.shx
  4
extfont.shx
  0
STYLE
  5
3A
330
3
100
AcDbSymbolTableRecord
100
AcDbTextStyleTableRecord
  2
ADESK1
 70
     0
 40
0.0
 41
1.0
 50
0.0
 71
     0
 42
5.0
  3
romans
  4
bigfont
  0
STYLE
  5
18F
330
3
100
AcDbSymbolTableRecord
100
AcDbTextStyleTableRecord
  2

 70
     1
 40
0.0
 41
1.0
 50
0.0
 71
     0
 42
2.5
  3
ltypeshp.shx
  4

  0
ENDTAB
  0
TABLE
  2
VIEW
  5
6
330
0
100
AcDbSymbolTable
 70
     0
  0
ENDTAB
  0
TABLE
  2
UCS
  5
7
330
0
100
AcDbSymbolTable
 70
     0
  0
ENDTAB
  0
TABLE
  2
APPID
  5
9
330
0
100
AcDbSymbolTable
 70
     5
  0
APPID
  5
10
330
9
100
AcDbSymbolTableRecord
100
AcDbRegAppTableRecord
  2
ACAD
 70
     0
  0
APPID
  5
24
330
9
100
AcDbSymbolTableRecord
100
AcDbRegAppTableRecord
  2
CONTENTTABDATA
 70
     0
  0
APPID
  5
25
330
9
100
AcDbSymbolTableRecord
100
AcDbRegAppTableRecord
  2
CONTENTCURRENTTAB
 70
     0
  0
APPID
  5
283
330
9
100
AcDbSymbolTableRecord
100
AcDbRegAppTableRecord
  2
DRAWINGVARIABLESXDATA
 70
     0
  0
APPID
  5
2323
330
9
100
AcDbSymbolTableRecord
100
AcDbRegAppTableRecord
  2
ACE-LT__COPYRIGHT_TRIALSOFT-JPN
 70
     0
  0
ENDTAB
  0
TABLE
  2
DIMSTYLE
  5
A
330
0
100
AcDbSymbolTable
 70
     4
100
AcDbDimStyleTable
 71
     1
340
E7
  0
DIMSTYLE
105
1D
330
A
100
AcDbSymbolTableRecord
100
AcDbDimStyleTableRecord
  2
STANDARD
 70
     0
340
F
  0
DIMSTYLE
105
3B
330
A
100
AcDbSymbolTableRecord
100
AcDbDimStyleTableRecord
  2
JIS
 70
     0
 41
2.5
 42
1.0
 43
7.0
 44
1.0
 73
     0
 74
     0
 77
     1
 78
     8
140
2.5
141
0.0
143
0.0394
147
0.0
172
     1
174
     1
175
     1
340
F
  0
DIMSTYLE
105
E7
102
{ACAD_REACTORS
330
446B
330
4479
330
449E
330
44C3
330
460C
330
4632
330
4641
330
466C
330
4696
330
46CB
330
49BA
330
449F
102
}
330
A
100
AcDbSymbolTableRecord
100
AcDbDimStyleTableRecord
  2
STANDARD_WS
 70
     0
 41
2.5
 42
0.625
 43
3.75
 44
1.25
 73
     0
 74
     0
 77
     1
 78
     8
140
2.5
141
2.5
143
0.0394
147
0.625
171
     4
172
     1
273
     8
274
     4
340
F
  0
ENDTAB
  0
TABLE
  2
BLOCK_RECORD
  5
1
330
0
100
AcDbSymbolTable
 70
    21
  0
BLOCK_RECORD
  5
18
102
{ACAD_XDICTIONARY
360
4B5F
102
}
330
1
100
AcDbSymbolTableRecord
100
AcDbBlockTableRecord
  2
*MODEL_SPACE
340
49D4
  0
BLOCK_RECORD
  5
15
102
{ACAD_XDICTIONARY
360
4B5D
102
}
330
1
100
AcDbSymbolTableRecord
100
AcDbBlockTableRecord
  2
*PAPER_SPACE
340
49D5
  0
BLOCK_RECORD
  5
3C
330
1
100
AcDbSymbolTableRecord
100
AcDbBlockTableRecord
  2
TITLE_BLOCK
340
0
  0
BLOCK_RECORD
  5
27C8
330
1
100
AcDbSymbolTableRecord
100
AcDbBlockTableRecord
  2
A$C7D152BF5
340
0
  0
BLOCK_RECORD
  5
2CCB
330
1
100
AcDbSymbolTableRecord
100
AcDbBlockTableRecord
  2
A$C4BF50593
340
0
  0
BLOCK_RECORD
  5
3640
330
1
100
AcDbSymbolTableRecord
100
AcDbBlockTableRecord
  2
A$C28EC78B4
340
0
102
{BLKREFS
331
3646
102
}
  0
BLOCK_RECORD
  5
3647
330
1
100
AcDbSymbolTableRecord
100
AcDbBlockTableRecord
  2
A$C56EF0BF5
340
0
  0
BLOCK_RECORD
  5
4107
330
1
100
AcDbSymbolTableRecord
100
AcDbBlockTableRecord
  2
L75X6
340
0
  0
BLOCK_RECORD
  5
4114
330
1
100
AcDbSymbolTableRecord
100
AcDbBlockTableRecord
  2
L100X10
340
0
102
{BLKREFS
331
4121
331
41CE
102
}
  0
BLOCK_RECORD
  5
445F
330
1
100
AcDbSymbolTableRecord
100
AcDbBlockTableRecord
  2
*D7
340
0
  0
BLOCK_RECORD
  5
447B
330
1
100
AcDbSymbolTableRecord
100
AcDbBlockTableRecord
  2
*D8
340
0
  0
BLOCK_RECORD
  5
4492
330
1
100
AcDbSymbolTableRecord
100
AcDbBlockTableRecord
  2
*D9
340
0
  0
BLOCK_RECORD
  5
44A0
330
1
100
AcDbSymbolTableRecord
100
AcDbBlockTableRecord
  2
*D10
340
0
  0
BLOCK_RECORD
  5
44B7
330
1
100
AcDbSymbolTableRecord
100
AcDbBlockTableRecord
  2
*D11
340
0
  0
BLOCK_RECORD
  5
4600
330
1
100
AcDbSymbolTableRecord
100
AcDbBlockTableRecord
  2
*D12
340
0
  0
BLOCK_RECORD
  5
4626
330
1
100
AcDbSymbolTableRecord
100
AcDbBlockTableRecord
  2
*D13
340
0
  0
BLOCK_RECORD
  5
4633
330
1
100
AcDbSymbolTableRecord
100
AcDbBlockTableRecord
  2
*D14
340
0
  0
BLOCK_RECORD
  5
4664
330
1
100
AcDbSymbolTableRecord
100
AcDbBlockTableRecord
  2
*D15
340
0
  0
BLOCK_RECORD
  5
468A
330
1
100
AcDbSymbolTableRecord
100
AcDbBlockTableRecord
  2
*D16
340
0
  0
BLOCK_RECORD
  5
46BF
330
1
100
AcDbSymbolTableRecord
100
AcDbBlockTableRecord
  2
*D17
340
0
  0
BLOCK_RECORD
  5
46CE
330
1
100
AcDbSymbolTableRecord
100
AcDbBlockTableRecord
  2
L150X12
340
0
  0
BLOCK_RECORD
  5
49AE
330
1
100
AcDbSymbolTableRecord
100
AcDbBlockTableRecord
  2
*D19
340
0
  0
ENDTAB
  0
ENDSEC
  0
SECTION
  2
BLOCKS
  0
BLOCK
  5
19
330
18
100
AcDbEntity
  8
0
100
AcDbBlockBegin
  2
*MODEL_SPACE
 70
     0
 10
0.0
 20
0.0
 30
0.0
  3
*MODEL_SPACE
  1

  0
ENDBLK
  5
1A
330
18
100
AcDbEntity
  8
0
100
AcDbBlockEnd
  0
BLOCK
  5
16
330
15
100
AcDbEntity
 67
     1
  8
0
100
AcDbBlockBegin
  2
*PAPER_SPACE
 70
     2
 10
0.0
 20
0.0
 30
0.0
  3
*PAPER_SPACE
  1

  0
ENDBLK
  5
17
330
15
100
AcDbEntity
 67
     1
  8
0
100
AcDbBlockEnd
  0
BLOCK
  5
D9
330
3C
100
AcDbEntity
  8
0
100
AcDbBlockBegin
  2
TITLE_BLOCK
 70
     2
 10
0.0
 20
0.0
 30
0.0
  3
TITLE_BLOCK
  1

  0
LINE
  5
3D
330
3C
100
AcDbEntity
  8
0
100
AcDbLine
 10
0.0
 20
0.0
 30
0.0
 11
0.0
 21
10.0
 31
0.0
  0
LINE
  5
3E
330
3C
100
AcDbEntity
  8
0
100
AcDbLine
 10
0.0
 20
420.0
 30
0.0
 11
25.0
 21
420.0
 31
0.0
  0
LINE
  5
3F
330
3C
100
AcDbEntity
  8
0
100
AcDbLine
 10
594.0
 20
420.0
 30
0.0
 11
594.0
 21
410.0
 31
0.0
  0
LINE
  5
40
330
3C
100
AcDbEntity
  8
0
100
AcDbLine
 10
594.0
 20
0.0
 30
0.0
 11
584.0
 21
0.0
 31
0.0
  0
LINE
  5
41
330
3C
100
AcDbEntity
  8
0
100
AcDbLine
 10
25.0
 20
10.0
 30
0.0
 11
25.0
 21
410.0
 31
0.0
  0
LINE
  5
42
330
3C
100
AcDbEntity
  8
0
100
AcDbLine
 10
584.0
 20
10.0
 30
0.0
 11
25.0
 21
10.0
 31
0.0
  0
LINE
  5
43
330
3C
100
AcDbEntity
  8
0
100
AcDbLine
 10
584.0
 20
410.0
 30
0.0
 11
584.0
 21
10.0
 31
0.0
  0
LINE
  5
44
330
3C
100
AcDbEntity
  8
0
100
AcDbLine
 10
25.0
 20
410.0
 30
0.0
 11
584.0
 21
410.0
 31
0.0
  0
LINE
  5
45
330
3C
100
AcDbEntity
  8
0
100
AcDbLine
 10
25.0
 20
0.0
 30
0.0
 11
0.0
 21
0.0
 31
0.0
  0
LINE
  5
46
330
3C
100
AcDbEntity
  8
0
100
AcDbLine
 10
0.0
 20
410.0
 30
0.0
 11
0.0
 21
420.0
 31
0.0
  0
LINE
  5
47
330
3C
100
AcDbEntity
  8
0
100
AcDbLine
 10
594.0
 20
10.0
 30
0.0
 11
594.0
 21
0.0
 31
0.0
  0
LINE
  5
48
330
3C
100
AcDbEntity
  8
0
100
AcDbLine
 10
584.0
 20
420.0
 30
0.0
 11
594.0
 21
420.0
 31
0.0
  0
ATTDEF
  5
49
330
3C
100
AcDbEntity
  8
0
 62
     0
100
AcDbText
 10
19.0
 20
10.0
 30
0.0
 40
3.0
  1

 50
90.0
  7
ADESK1
100
AcDbAttributeDefinition
  3

  2
USER
 70
     8
  0
ATTDEF
  5
4A
330
3C
100
AcDbEntity
  8
0
 62
     0
100
AcDbText
 10
19.0
 20
70.0
 30
0.0
 40
3.0
  1

 50
90.0
  7
ADESK1
100
AcDbAttributeDefinition
  3

  2
REVDATE
 70
     8
  0
ATTDEF
  5
4B
330
3C
100
AcDbEntity
  8
0
 62
     0
100
AcDbText
 10
19.0
 20
118.0
 30
0.0
 40
3.0
  1

 50
90.0
  7
ADESK1
100
AcDbAttributeDefinition
  3

  2
FNAME
 70
     8
  0
LINE
  5
4C
330
3C
100
AcDbEntity
  8
OBJECT
100
AcDbLine
 10
130.0
 20
16.0
 30
0.0
 11
25.0
 21
16.0
 31
0.0
  0
LINE
  5
4D
330
3C
100
AcDbEntity
  8
OBJECT
100
AcDbLine
 10
130.0
 20
22.0
 30
0.0
 11
25.0
 21
22.0
 31
0.0
  0
LINE
  5
4E
330
3C
100
AcDbEntity
  8
OBJECT
100
AcDbLine
 10
130.0
 20
28.0
 30
0.0
 11
25.0
 21
28.0
 31
0.0
  0
LINE
  5
4F
330
3C
100
AcDbEntity
  8
OBJECT
100
AcDbLine
 10
130.0
 20
34.0
 30
0.0
 11
25.0
 21
34.0
 31
0.0
  0
LINE
  5
50
330
3C
100
AcDbEntity
  8
OBJECT
100
AcDbLine
 10
130.0
 20
40.0
 30
0.0
 11
25.0
 21
40.0
 31
0.0
  0
LINE
  5
51
330
3C
100
AcDbEntity
  8
OBJECT
100
AcDbLine
 10
28.0
 20
11.535898
 30
0.0
 11
30.0
 21
15.0
 31
0.0
  0
LINE
  5
52
330
3C
100
AcDbEntity
  8
OBJECT
100
AcDbLine
 10
32.0
 20
11.535898
 30
0.0
 11
30.0
 21
15.0
 31
0.0
  0
LINE
  5
53
330
3C
100
AcDbEntity
  8
OBJECT
100
AcDbLine
 10
35.0
 20
10.0
 30
0.0
 11
35.0
 21
40.0
 31
0.0
  0
LINE
  5
54
330
3C
100
AcDbEntity
  8
OBJECT
100
AcDbLine
 10
50.0
 20
10.0
 30
0.0
 11
50.0
 21
40.0
 31
0.0
  0
LINE
  5
55
330
3C
100
AcDbEntity
  8
OBJECT
100
AcDbLine
 10
80.0
 20
10.0
 30
0.0
 11
80.0
 21
40.0
 31
0.0
  0
LINE
  5
56
330
3C
100
AcDbEntity
  8
OBJECT
100
AcDbLine
 10
28.0
 20
11.535898
 30
0.0
 11
32.0
 21
11.535898
 31
0.0
  0
LINE
  5
57
330
3C
100
AcDbEntity
  8
OBJECT
100
AcDbLine
 10
39.5
 20
13.0
 30
0.0
 11
40.49999999999999
 21
13.0
 31
0.0
  0
LINE
  5
58
330
3C
100
AcDbEntity
  8
OBJECT
100
AcDbLine
 10
44.5
 20
13.0
 30
0.0
 11
45.49999999999999
 21
13.0
 31
0.0
  0
LINE
  5
59
330
3C
100
AcDbEntity
  8
OBJECT
100
AcDbLine
 10
32.0
 20
17.535898
 30
0.0
 11
30.0
 21
21.0
 31
0.0
  0
LINE
  5
5A
330
3C
100
AcDbEntity
  8
OBJECT
100
AcDbLine
 10
28.0
 20
17.535898
 30
0.0
 11
32.0
 21
17.535898
 31
0.0
  0
LINE
  5
5B
330
3C
100
AcDbEntity
  8
OBJECT
100
AcDbLine
 10
28.0
 20
17.535898
 30
0.0
 11
30.0
 21
21.0
 31
0.0
  0
LINE
  5
5C
330
3C
100
AcDbEntity
  8
OBJECT
100
AcDbLine
 10
32.0
 20
23.535898
 30
0.0
 11
30.0
 21
27.0
 31
0.0
  0
LINE
  5
5D
330
3C
100
AcDbEntity
  8
OBJECT
100
AcDbLine
 10
28.0
 20
23.535898
 30
0.0
 11
32.0
 21
23.535898
 31
0.0
  0
LINE
  5
5E
330
3C
100
AcDbEntity
  8
OBJECT
100
AcDbLine
 10
28.0
 20
23.535898
 30
0.0
 11
30.0
 21
27.0
 31
0.0
  0
LINE
  5
5F
330
3C
100
AcDbEntity
  8
OBJECT
100
AcDbLine
 10
28.0
 20
35.535898
 30
0.0
 11
30.0
 21
39.0
 31
0.0
  0
LINE
  5
60
330
3C
100
AcDbEntity
  8
OBJECT
100
AcDbLine
 10
32.0
 20
35.535898
 30
0.0
 11
30.0
 21
39.0
 31
0.0
  0
LINE
  5
61
330
3C
100
AcDbEntity
  8
OBJECT
100
AcDbLine
 10
28.0
 20
35.535898
 30
0.0
 11
32.0
 21
35.535898
 31
0.0
  0
LINE
  5
62
330
3C
100
AcDbEntity
  8
OBJECT
100
AcDbLine
 10
32.0
 20
29.53589800000001
 30
0.0
 11
30.0
 21
33.0
 31
0.0
  0
LINE
  5
63
330
3C
100
AcDbEntity
  8
OBJECT
100
AcDbLine
 10
28.0
 20
29.53589800000001
 30
0.0
 11
32.0
 21
29.53589800000001
 31
0.0
  0
LINE
  5
64
330
3C
100
AcDbEntity
  8
OBJECT
100
AcDbLine
 10
28.0
 20
29.53589800000001
 30
0.0
 11
30.0
 21
33.0
 31
0.0
  0
LINE
  5
65
330
3C
100
AcDbEntity
  8
OBJECT
100
AcDbLine
 10
39.5
 20
19.0
 30
0.0
 11
40.49999999999999
 21
19.0
 31
0.0
  0
LINE
  5
66
330
3C
100
AcDbEntity
  8
OBJECT
100
AcDbLine
 10
44.5
 20
19.0
 30
0.0
 11
45.49999999999999
 21
19.0
 31
0.0
  0
LINE
  5
67
330
3C
100
AcDbEntity
  8
OBJECT
100
AcDbLine
 10
39.5
 20
25.0
 30
0.0
 11
40.49999999999999
 21
25.0
 31
0.0
  0
LINE
  5
68
330
3C
100
AcDbEntity
  8
OBJECT
100
AcDbLine
 10
44.5
 20
25.0
 30
0.0
 11
45.49999999999999
 21
25.0
 31
0.0
  0
LINE
  5
69
330
3C
100
AcDbEntity
  8
OBJECT
100
AcDbLine
 10
39.5
 20
31.0
 30
0.0
 11
40.49999999999999
 21
31.0
 31
0.0
  0
LINE
  5
6A
330
3C
100
AcDbEntity
  8
OBJECT
100
AcDbLine
 10
39.5
 20
37.0
 30
0.0
 11
40.49999999999999
 21
37.0
 31
0.0
  0
LINE
  5
6B
330
3C
100
AcDbEntity
  8
OBJECT
100
AcDbLine
 10
44.5
 20
31.0
 30
0.0
 11
45.49999999999999
 21
31.0
 31
0.0
  0
LINE
  5
6C
330
3C
100
AcDbEntity
  8
OBJECT
100
AcDbLine
 10
44.5
 20
37.0
 30
0.0
 11
45.49999999999999
 21
37.0
 31
0.0
  0
LINE
  5
6D
330
3C
100
AcDbEntity
  8
OBJECT
100
AcDbLine
 10
120.0
 20
10.0
 30
0.0
 11
120.0
 21
40.0
 31
0.0
  0
LINE
  5
6E
330
3C
100
AcDbEntity
  8
OBJECT
100
AcDbLine
 10
130.0
 20
40.0
 30
0.0
 11
130.0
 21
10.0
 31
0.0
  0
LINE
  5
6F
330
3C
100
AcDbEntity
  8
0
100
AcDbLine
 10
304.5
 20
10.0
 30
0.0
 11
304.5
 21
0.0
 31
0.0
  0
LINE
  5
70
330
3C
100
AcDbEntity
  8
0
100
AcDbLine
 10
304.5
 20
410.0
 30
0.0
 11
304.5
 21
420.0
 31
0.0
  0
LINE
  5
71
330
3C
100
AcDbEntity
  8
0
100
AcDbLine
 10
584.0
 20
210.0
 30
0.0
 11
594.0
 21
210.0
 31
0.0
  0
LINE
  5
72
330
3C
100
AcDbEntity
  8
0
100
AcDbLine
 10
25.0
 20
210.0
 30
0.0
 11
0.0
 21
210.0
 31
0.0
  0
TEXT
  5
73
330
3C
100
AcDbEntity
  8
0
100
AcDbText
 10
1.0
 20
1.0
 30
0.0
 40
3.0
  1
この図枠はサンプルです。社内の規格やプロッタの出力範囲に合わせて適当に変更してご利用ください。
  7
ADESK1
100
AcDbText
  0
LINE
  5
74
330
3C
100
AcDbEntity
  8
0
100
AcDbLine
 10
25.0
 20
360.0
 30
0.0
 11
20.0
 21
360.0
 31
0.0
  0
LINE
  5
75
330
3C
100
AcDbEntity
  8
0
100
AcDbLine
 10
25.0
 20
310.0
 30
0.0
 11
20.0
 21
310.0
 31
0.0
  0
LINE
  5
76
330
3C
100
AcDbEntity
  8
0
100
AcDbLine
 10
25.0
 20
260.0
 30
0.0
 11
20.0
 21
260.0
 31
0.0
  0
LINE
  5
77
330
3C
100
AcDbEntity
  8
0
100
AcDbLine
 10
25.0
 20
210.0
 30
0.0
 11
20.0
 21
210.0
 31
0.0
  0
LINE
  5
78
330
3C
100
AcDbEntity
  8
0
100
AcDbLine
 10
25.0
 20
160.0
 30
0.0
 11
20.0
 21
160.0
 31
0.0
  0
LINE
  5
79
330
3C
100
AcDbEntity
  8
0
100
AcDbLine
 10
25.0
 20
110.0
 30
0.0
 11
20.0
 21
110.0
 31
0.0
  0
LINE
  5
7A
330
3C
100
AcDbEntity
  8
0
100
AcDbLine
 10
25.0
 20
60.0
 30
0.0
 11
20.0
 21
60.0
 31
0.0
  0
LINE
  5
7B
330
3C
100
AcDbEntity
  8
0
100
AcDbLine
 10
584.0
 20
60.0
 30
0.0
 11
589.0
 21
60.0
 31
0.0
  0
LINE
  5
7C
330
3C
100
AcDbEntity
  8
0
100
AcDbLine
 10
584.0
 20
110.0
 30
0.0
 11
589.0
 21
110.0
 31
0.0
  0
LINE
  5
7D
330
3C
100
AcDbEntity
  8
0
100
AcDbLine
 10
584.0
 20
160.0
 30
0.0
 11
589.0
 21
160.0
 31
0.0
  0
LINE
  5
7E
330
3C
100
AcDbEntity
  8
0
100
AcDbLine
 10
584.0
 20
210.0
 30
0.0
 11
589.0
 21
210.0
 31
0.0
  0
LINE
  5
7F
330
3C
100
AcDbEntity
  8
0
100
AcDbLine
 10
584.0
 20
260.0
 30
0.0
 11
589.0
 21
260.0
 31
0.0
  0
LINE
  5
80
330
3C
100
AcDbEntity
  8
0
100
AcDbLine
 10
584.0
 20
310.0
 30
0.0
 11
589.0
 21
310.0
 31
0.0
  0
LINE
  5
81
330
3C
100
AcDbEntity
  8
0
100
AcDbLine
 10
584.0
 20
360.0
 30
0.0
 11
589.0
 21
360.0
 31
0.0
  0
LINE
  5
82
330
3C
100
AcDbEntity
  8
0
100
AcDbLine
 10
80.9000000000001
 20
10.0
 30
0.0
 11
80.9000000000001
 21
5.0
 31
0.0
  0
LINE
  5
83
330
3C
100
AcDbEntity
  8
0
100
AcDbLine
 10
136.8
 20
10.0
 30
0.0
 11
136.8
 21
5.0
 31
0.0
  0
LINE
  5
84
330
3C
100
AcDbEntity
  8
0
100
AcDbLine
 10
192.7
 20
10.0
 30
0.0
 11
192.7
 21
5.0
 31
0.0
  0
LINE
  5
85
330
3C
100
AcDbEntity
  8
0
100
AcDbLine
 10
248.6
 20
10.0
 30
0.0
 11
248.6
 21
5.0
 31
0.0
  0
LINE
  5
86
330
3C
100
AcDbEntity
  8
0
100
AcDbLine
 10
304.5
 20
10.0
 30
0.0
 11
304.5
 21
5.0
 31
0.0
  0
LINE
  5
87
330
3C
100
AcDbEntity
  8
0
100
AcDbLine
 10
360.4
 20
10.0
 30
0.0
 11
360.4
 21
5.0
 31
0.0
  0
LINE
  5
88
330
3C
100
AcDbEntity
  8
0
100
AcDbLine
 10
416.3
 20
10.0
 30
0.0
 11
416.3
 21
5.0
 31
0.0
  0
LINE
  5
89
330
3C
100
AcDbEntity
  8
0
100
AcDbLine
 10
472.2
 20
10.0
 30
0.0
 11
472.2
 21
5.0
 31
0.0
  0
LINE
  5
8A
330
3C
100
AcDbEntity
  8
0
100
AcDbLine
 10
528.1
 20
10.0
 30
0.0
 11
528.1
 21
5.0
 31
0.0
  0
LINE
  5
8B
330
3C
100
AcDbEntity
  8
0
100
AcDbLine
 10
528.0999999999998
 20
410.0
 30
0.0
 11
528.0999999999998
 21
415.0
 31
0.0
  0
LINE
  5
8C
330
3C
100
AcDbEntity
  8
0
100
AcDbLine
 10
472.2
 20
410.0
 30
0.0
 11
472.2
 21
415.0
 31
0.0
  0
LINE
  5
8D
330
3C
100
AcDbEntity
  8
0
100
AcDbLine
 10
416.2999999999999
 20
410.0
 30
0.0
 11
416.2999999999999
 21
415.0
 31
0.0
  0
LINE
  5
8E
330
3C
100
AcDbEntity
  8
0
100
AcDbLine
 10
360.4
 20
410.0
 30
0.0
 11
360.4
 21
415.0
 31
0.0
  0
LINE
  5
8F
330
3C
100
AcDbEntity
  8
0
100
AcDbLine
 10
304.5
 20
410.0
 30
0.0
 11
304.5
 21
415.0
 31
0.0
  0
LINE
  5
90
330
3C
100
AcDbEntity
  8
0
100
AcDbLine
 10
248.6
 20
410.0
 30
0.0
 11
248.6
 21
415.0
 31
0.0
  0
LINE
  5
91
330
3C
100
AcDbEntity
  8
0
100
AcDbLine
 10
192.6999999999999
 20
410.0
 30
0.0
 11
192.6999999999999
 21
415.0
 31
0.0
  0
LINE
  5
92
330
3C
100
AcDbEntity
  8
0
100
AcDbLine
 10
136.8
 20
410.0
 30
0.0
 11
136.8
 21
415.0
 31
0.0
  0
LINE
  5
93
330
3C
100
AcDbEntity
  8
0
100
AcDbLine
 10
80.89999999999999
 20
410.0
 30
0.0
 11
80.89999999999999
 21
415.0
 31
0.0
  0
TEXT
  5
94
330
3C
100
AcDbEntity
  8
0
100
AcDbText
 10
51.73571428571428
 20
411.0
 30
0.0
 40
3.0
  1
1
  7
ADESK1
 72
     1
 11
52.94999999999999
 21
411.0
 31
0.0
100
AcDbText
  0
TEXT
  5
95
330
3C
100
AcDbEntity
  8
0
100
AcDbText
 10
21.79951209273041
 20
385.0
 30
0.0
 40
3.0
  1
A
  7
ADESK1
 72
     1
 11
23.0852263784447
 21
385.0
 31
0.0
100
AcDbText
  0
TEXT
  5
96
330
3C
100
AcDbEntity
  8
0
100
AcDbText
 10
107.4214285714285
 20
411.0
 30
0.0
 40
3.0
  1
2
  7
ADESK1
 72
     1
 11
108.85
 21
411.0
 31
0.0
100
AcDbText
  0
TEXT
  5
97
330
3C
100
AcDbEntity
  8
0
100
AcDbText
 10
163.3214285714286
 20
411.0
 30
0.0
 40
3.0
  1
3
  7
ADESK1
 72
     1
 11
164.75
 21
411.0
 31
0.0
100
AcDbText
  0
TEXT
  5
98
330
3C
100
AcDbEntity
  8
0
100
AcDbText
 10
219.15
 20
411.0
 30
0.0
 40
3.0
  1
4
  7
ADESK1
 72
     1
 11
220.65
 21
411.0
 31
0.0
100
AcDbText
  0
TEXT
  5
99
330
3C
100
AcDbEntity
  8
0
100
AcDbText
 10
275.1214285714286
 20
411.0
 30
0.0
 40
3.0
  1
5
  7
ADESK1
 72
     1
 11
276.55
 21
411.0
 31
0.0
100
AcDbText
  0
TEXT
  5
9A
330
3C
100
AcDbEntity
  8
0
100
AcDbText
 10
330.95
 20
411.0
 30
0.0
 40
3.0
  1
6
  7
ADESK1
 72
     1
 11
332.45
 21
411.0
 31
0.0
100
AcDbText
  0
TEXT
  5
9B
330
3C
100
AcDbEntity
  8
0
100
AcDbText
 10
386.9214285714286
 20
411.0
 30
0.0
 40
3.0
  1
7
  7
ADESK1
 72
     1
 11
388.35
 21
411.0
 31
0.0
100
AcDbText
  0
TEXT
  5
9C
330
3C
100
AcDbEntity
  8
0
100
AcDbText
 10
442.8214285714286
 20
411.0
 30
0.0
 40
3.0
  1
8
  7
ADESK1
 72
     1
 11
444.25
 21
411.0
 31
0.0
100
AcDbText
  0
TEXT
  5
9D
330
3C
100
AcDbEntity
  8
0
100
AcDbText
 10
498.7928571428572
 20
411.0
 30
0.0
 40
3.0
  1
9
  7
ADESK1
 72
     1
 11
500.15
 21
411.0
 31
0.0
100
AcDbText
  0
TEXT
  5
9E
330
3C
100
AcDbEntity
  8
0
100
AcDbText
 10
552.9785714285715
 20
411.0
 30
0.0
 40
3.0
  1
10
  7
ADESK1
 72
     1
 11
556.0500000000001
 21
411.0
 31
0.0
100
AcDbText
  0
TEXT
  5
9F
330
3C
100
AcDbEntity
  8
0
100
AcDbText
 10
21.51379780701613
 20
335.0
 30
0.0
 40
3.0
  1
B
  7
ADESK1
 72
     1
 11
23.0852263784447
 21
335.0
 31
0.0
100
AcDbText
  0
TEXT
  5
A0
330
3C
100
AcDbEntity
  8
0
100
AcDbText
 10
21.5852263784447
 20
285.0
 30
0.0
 40
3.0
  1
C
  7
ADESK1
 72
     1
 11
23.0852263784447
 21
285.0
 31
0.0
100
AcDbText
  0
TEXT
  5
A1
330
3C
100
AcDbEntity
  8
0
100
AcDbText
 10
21.51379780701613
 20
235.0
 30
0.0
 40
3.0
  1
D
  7
ADESK1
 72
     1
 11
23.0852263784447
 21
235.0
 31
0.0
100
AcDbText
  0
TEXT
  5
A2
330
3C
100
AcDbEntity
  8
0
100
AcDbText
 10
21.5852263784447
 20
185.0
 30
0.0
 40
3.0
  1
E
  7
ADESK1
 72
     1
 11
23.0852263784447
 21
185.0
 31
0.0
100
AcDbText
  0
TEXT
  5
A3
330
3C
100
AcDbEntity
  8
0
100
AcDbText
 10
21.5852263784447
 20
135.0
 30
0.0
 40
3.0
  1
F
  7
ADESK1
 72
     1
 11
23.0852263784447
 21
135.0
 31
0.0
100
AcDbText
  0
TEXT
  5
A4
330
3C
100
AcDbEntity
  8
0
100
AcDbText
 10
21.5852263784447
 20
85.0
 30
0.0
 40
3.0
  1
G
  7
ADESK1
 72
     1
 11
23.0852263784447
 21
85.0
 31
0.0
100
AcDbText
  0
TEXT
  5
A5
330
3C
100
AcDbEntity
  8
0
100
AcDbText
 10
21.51379780701613
 20
35.0
 30
0.0
 40
3.0
  1
H
  7
ADESK1
 72
     1
 11
23.0852263784447
 21
35.0
 31
0.0
100
AcDbText
  0
TEXT
  5
A6
330
3C
100
AcDbEntity
  8
0
100
AcDbText
 10
51.73571428571433
 20
6.161340157207792
 30
0.0
 40
3.0
  1
1
  7
ADESK1
 72
     1
 11
52.95000000000005
 21
6.161340157207792
 31
0.0
100
AcDbText
  0
TEXT
  5
A7
330
3C
100
AcDbEntity
  8
0
100
AcDbText
 10
107.4214285714286
 20
6.161340157207792
 30
0.0
 40
3.0
  1
2
  7
ADESK1
 72
     1
 11
108.85
 21
6.161340157207792
 31
0.0
100
AcDbText
  0
TEXT
  5
A8
330
3C
100
AcDbEntity
  8
0
100
AcDbText
 10
163.3214285714286
 20
6.161340157207792
 30
0.0
 40
3.0
  1
3
  7
ADESK1
 72
     1
 11
164.75
 21
6.161340157207792
 31
0.0
100
AcDbText
  0
TEXT
  5
A9
330
3C
100
AcDbEntity
  8
0
100
AcDbText
 10
219.15
 20
6.161340157207792
 30
0.0
 40
3.0
  1
4
  7
ADESK1
 72
     1
 11
220.65
 21
6.161340157207792
 31
0.0
100
AcDbText
  0
TEXT
  5
AA
330
3C
100
AcDbEntity
  8
0
100
AcDbText
 10
275.1214285714286
 20
6.161340157207792
 30
0.0
 40
3.0
  1
5
  7
ADESK1
 72
     1
 11
276.55
 21
6.161340157207792
 31
0.0
100
AcDbText
  0
TEXT
  5
AB
330
3C
100
AcDbEntity
  8
0
100
AcDbText
 10
330.95
 20
6.161340157207792
 30
0.0
 40
3.0
  1
6
  7
ADESK1
 72
     1
 11
332.45
 21
6.161340157207792
 31
0.0
100
AcDbText
  0
TEXT
  5
AC
330
3C
100
AcDbEntity
  8
0
100
AcDbText
 10
386.9214285714286
 20
6.161340157207792
 30
0.0
 40
3.0
  1
7
  7
ADESK1
 72
     1
 11
388.35
 21
6.161340157207792
 31
0.0
100
AcDbText
  0
TEXT
  5
AD
330
3C
100
AcDbEntity
  8
0
100
AcDbText
 10
442.8214285714286
 20
6.161340157207792
 30
0.0
 40
3.0
  1
8
  7
ADESK1
 72
     1
 11
444.25
 21
6.161340157207792
 31
0.0
100
AcDbText
  0
TEXT
  5
AE
330
3C
100
AcDbEntity
  8
0
100
AcDbText
 10
498.7928571428572
 20
6.161340157207792
 30
0.0
 40
3.0
  1
9
  7
ADESK1
 72
     1
 11
500.15
 21
6.161340157207792
 31
0.0
100
AcDbText
  0
TEXT
  5
AF
330
3C
100
AcDbEntity
  8
0
100
AcDbText
 10
552.9785714285715
 20
6.161340157207792
 30
0.0
 40
3.0
  1
10
  7
ADESK1
 72
     1
 11
556.0500000000001
 21
6.161340157207792
 31
0.0
100
AcDbText
  0
TEXT
  5
B0
330
3C
100
AcDbEntity
  8
0
100
AcDbText
 10
584.927379730091
 20
385.0
 30
0.0
 40
3.0
  1
A
  7
ADESK1
 72
     1
 11
586.2130940158054
 21
385.0
 31
0.0
100
AcDbText
  0
TEXT
  5
B1
330
3C
100
AcDbEntity
  8
0
100
AcDbText
 10
584.6416654443768
 20
335.0
 30
0.0
 40
3.0
  1
B
  7
ADESK1
 72
     1
 11
586.2130940158054
 21
335.0
 31
0.0
100
AcDbText
  0
TEXT
  5
B2
330
3C
100
AcDbEntity
  8
0
100
AcDbText
 10
584.7130940158053
 20
285.0
 30
0.0
 40
3.0
  1
C
  7
ADESK1
 72
     1
 11
586.2130940158054
 21
285.0
 31
0.0
100
AcDbText
  0
TEXT
  5
B3
330
3C
100
AcDbEntity
  8
0
100
AcDbText
 10
584.6416654443768
 20
235.0
 30
0.0
 40
3.0
  1
D
  7
ADESK1
 72
     1
 11
586.2130940158054
 21
235.0
 31
0.0
100
AcDbText
  0
TEXT
  5
B4
330
3C
100
AcDbEntity
  8
0
100
AcDbText
 10
584.7130940158053
 20
185.0
 30
0.0
 40
3.0
  1
E
  7
ADESK1
 72
     1
 11
586.2130940158054
 21
185.0
 31
0.0
100
AcDbText
  0
TEXT
  5
B5
330
3C
100
AcDbEntity
  8
0
100
AcDbText
 10
584.7130940158053
 20
135.0
 30
0.0
 40
3.0
  1
F
  7
ADESK1
 72
     1
 11
586.2130940158054
 21
135.0
 31
0.0
100
AcDbText
  0
TEXT
  5
B6
330
3C
100
AcDbEntity
  8
0
100
AcDbText
 10
584.7130940158053
 20
85.0
 30
0.0
 40
3.0
  1
G
  7
ADESK1
 72
     1
 11
586.2130940158054
 21
85.0
 31
0.0
100
AcDbText
  0
TEXT
  5
B7
330
3C
100
AcDbEntity
  8
0
100
AcDbText
 10
584.6416654443768
 20
35.0
 30
0.0
 40
3.0
  1
H
  7
ADESK1
 72
     1
 11
586.2130940158054
 21
35.0
 31
0.0
100
AcDbText
  0
LINE
  5
B8
330
3C
100
AcDbEntity
  8
0
 62
     0
100
AcDbLine
 10
454.2978723404242
 20
49.00000000000036
 30
0.0
 11
584.0
 21
49.00000000000036
 31
0.0
  0
LINE
  5
B9
330
3C
100
AcDbEntity
  8
0
 62
     0
100
AcDbLine
 10
454.2978723404242
 20
13.00000000000004
 30
0.0
 11
584.0
 21
13.00000000000004
 31
0.0
  0
LINE
  5
BA
330
3C
100
AcDbEntity
  8
0
 62
     0
100
AcDbLine
 10
454.2978723404242
 20
37.00000000000024
 30
0.0
 11
584.0
 21
37.00000000000024
 31
0.0
  0
LINE
  5
BB
330
3C
100
AcDbEntity
  8
0
 62
     0
100
AcDbLine
 10
492.1276595744672
 20
22.00000000000012
 30
0.0
 11
584.0
 21
22.00000000000012
 31
0.0
  0
LINE
  5
BC
330
3C
100
AcDbEntity
  8
0
 62
     0
100
AcDbLine
 10
454.2978723404242
 20
10.0
 30
0.0
 11
584.0
 21
10.0
 31
0.0
  0
LINE
  5
BD
330
3C
100
AcDbEntity
  8
0
 62
     0
100
AcDbLine
 10
584.0
 20
49.00000000000036
 30
0.0
 11
454.2978723404242
 21
49.00000000000036
 31
0.0
  0
LINE
  5
BE
330
3C
100
AcDbEntity
  8
0
 62
     0
100
AcDbLine
 10
477.7163120567365
 20
37.00000000000024
 30
0.0
 11
477.7163120567365
 21
10.0
 31
0.0
  0
LINE
  5
BF
330
3C
100
AcDbEntity
  8
0
 62
     0
100
AcDbLine
 10
459.7021276595731
 20
37.00000000000024
 30
0.0
 11
459.7021276595731
 21
10.0
 31
0.0
  0
LINE
  5
C0
330
3C
100
AcDbEntity
  8
0
 62
     0
100
AcDbLine
 10
486.7234042553184
 20
37.00000000000024
 30
0.0
 11
486.7234042553184
 21
10.0
 31
0.0
  0
LINE
  5
C1
330
3C
100
AcDbEntity
  8
0
 62
     0
100
AcDbLine
 10
492.1276595744672
 20
25.00000000000012
 30
0.0
 11
492.1276595744672
 21
10.0
 31
0.0
  0
LINE
  5
C2
330
3C
100
AcDbEntity
  8
0
 62
     0
100
AcDbLine
 10
454.2978723404242
 20
49.00000000000036
 30
0.0
 11
454.2978723404242
 21
10.0
 31
0.0
  0
LINE
  5
C3
330
3C
100
AcDbEntity
  8
0
 62
     0
100
AcDbLine
 10
522.7517730496447
 20
49.00000000000036
 30
0.0
 11
522.7517730496447
 21
10.0
 31
0.0
  0
LINE
  5
C4
330
3C
100
AcDbEntity
  8
0
 62
     0
100
AcDbLine
 10
502.7659574468077
 20
22.00000000000008
 30
0.0
 11
502.7659574468077
 21
10.0
 31
0.0
  0
LINE
  5
C5
330
3C
100
AcDbEntity
  8
0
 62
     0
100
AcDbLine
 10
513.4042553191484
 20
22.00000000000008
 30
0.0
 11
513.4042553191484
 21
10.0
 31
0.0
  0
LINE
  5
C6
330
3C
100
AcDbEntity
  8
0
 62
     0
100
AcDbLine
 10
454.2978723404242
 20
16.00000000000008
 30
0.0
 11
492.1276595744672
 21
16.00000000000008
 31
0.0
  0
LINE
  5
C7
330
3C
100
AcDbEntity
  8
0
 62
     0
100
AcDbLine
 10
454.2978723404242
 20
10.0
 30
0.0
 11
454.2978723404242
 21
13.00000000000004
 31
0.0
  0
TEXT
  5
C8
330
3C
100
AcDbEntity
  8
0
 62
     0
100
AcDbText
 10
495.7174935280942
 20
10.48329012996929
 30
0.0
 40
1.791674070777747
  1
製図
  7
ADESK1
 72
     1
 11
497.5688900678979
 21
10.48329012996929
 31
0.0
100
AcDbText
  0
TEXT
  5
C9
330
3C
100
AcDbEntity
  8
0
 62
     0
100
AcDbText
 10
506.2960689314087
 20
10.48329012996929
 30
0.0
 40
1.791674070777747
  1
設計
  7
ADESK1
 72
     1
 11
508.2071879402383
 21
10.48329012996929
 31
0.0
100
AcDbText
  0
TEXT
  5
CA
330
3C
100
AcDbEntity
  8
0
 62
     0
100
AcDbText
 10
516.2447163844404
 20
10.55220101068186
 30
0.0
 40
1.791674070777747
  1
照査
  7
ADESK1
 72
     1
 11
518.15583539327
 21
10.55220101068186
 31
0.0
100
AcDbText
  0
LINE
  5
CB
330
3C
100
AcDbEntity
  8
0
 62
     0
100
AcDbLine
 10
454.2978723404242
 20
25.00000000000012
 30
0.0
 11
492.1276595744672
 21
25.00000000000012
 31
0.0
  0
LINE
  5
CC
330
3C
100
AcDbEntity
  8
0
 62
     0
100
AcDbLine
 10
454.2978723404242
 20
22.00000000000008
 30
0.0
 11
492.1276595744672
 21
22.00000000000012
 31
0.0
  0
LINE
  5
CD
330
3C
100
AcDbEntity
  8
0
 62
     0
100
AcDbLine
 10
454.2978723404242
 20
19.00000000000008
 30
0.0
 11
492.1276595744672
 21
19.00000000000012
 31
0.0
  0
LINE
  5
CE
330
3C
100
AcDbEntity
  8
0
 62
     0
100
AcDbLine
 10
454.2978723404242
 20
34.00000000000024
 30
0.0
 11
522.7517730496447
 21
34.00000000000024
 31
0.0
  0
LINE
  5
CF
330
3C
100
AcDbEntity
  8
0
 62
     0
100
AcDbLine
 10
454.2978723404242
 20
31.0000000000002
 30
0.0
 11
522.7517730496447
 21
31.0000000000002
 31
0.0
  0
LINE
  5
D0
330
3C
100
AcDbEntity
  8
0
 62
     0
100
AcDbLine
 10
454.2978723404242
 20
28.00000000000016
 30
0.0
 11
522.7517730496447
 21
28.00000000000016
 31
0.0
  0
LINE
  5
D1
330
3C
100
AcDbEntity
  8
0
 62
     0
100
AcDbLine
 10
492.1276595744672
 20
25.00000000000012
 30
0.0
 11
522.7517730496447
 21
25.00000000000012
 31
0.0
  0
LINE
  5
D2
330
3C
100
AcDbEntity
  8
0
 62
     0
100
AcDbLine
 10
492.1276595744672
 20
49.00000000000036
 30
0.0
 11
492.1276595744672
 21
25.00000000000012
 31
0.0
  0
LINE
  5
D3
330
3C
100
AcDbEntity
  8
0
 62
     0
100
AcDbLine
 10
499.3333333333326
 20
37.00000000000024
 30
0.0
 11
499.3333333333326
 21
25.00000000000012
 31
0.0
  0
LINE
  5
D4
330
3C
100
AcDbEntity
  8
0
 62
     0
100
AcDbLine
 10
510.1418439716305
 20
49.00000000000036
 30
0.0
 11
510.1418439716305
 21
22.00000000000012
 31
0.0
  0
LINE
  5
D5
330
3C
100
AcDbEntity
  8
0
 62
     0
100
AcDbLine
 10
576.7943262411347
 20
22.00000000000012
 30
0.0
 11
576.7943262411347
 21
10.0
 31
0.0
  0
LINE
  5
D6
330
3C
100
AcDbEntity
  8
0
 62
     0
100
AcDbLine
 10
584.0
 20
49.00000000000036
 30
0.0
 11
584.0
 21
10.0
 31
0.0
  0
LINE
  5
D7
330
3C
100
AcDbEntity
  8
0
 62
     0
100
AcDbLine
 10
584.0
 20
10.0
 30
0.0
 11
584.0
 21
49.00000000000036
 31
0.0
  0
LINE
  5
D8
330
3C
100
AcDbEntity
  8
0
 62
     0
100
AcDbLine
 10
576.7943262411347
 20
16.00000000000008
 30
0.0
 11
584.0
 21
16.00000000000008
 31
0.0
  0
ENDBLK
  5
DA
330
3C
100
AcDbEntity
  8
0
100
AcDbBlockEnd
  0
BLOCK
  5
27E2
330
27C8
100
AcDbEntity
  8
0
 48
100.0
100
AcDbBlockBegin
  2
A$C7D152BF5
 70
     0
 10
0.0
 20
0.0
 30
0.0
  3
A$C7D152BF5
  1

  0
LINE
  5
27C9
330
27C8
100
AcDbEntity
  8
OBJECT
  6
Continuous
 48
100.0
100
AcDbLine
 10
100.0007362714095
 20
159.5460211073332
 30
0.0
 11
100.0018996688595
 21
659.5460211181598
 31
0.0
  0
LINE
  5
27CA
330
27C8
100
AcDbEntity
  8
OBJECT
  6
Continuous
 48
100.0
100
AcDbLine
 10
1000.000736251939
 20
159.5376446457048
 30
0.0
 11
1000.001899649389
 21
659.5376446565315
 31
0.0
  0
LINE
  5
27CB
330
27C8
100
AcDbEntity
  8
OBJECT
  6
Continuous
 48
100.0
100
AcDbLine
 10
500.0007362627656
 20
159.5422982354976
 30
0.0
 11
500.0018996602157
 21
659.5422982463242
 31
0.0
  0
LINE
  5
27CC
330
27C8
100
AcDbEntity
  8
OBJECT
  6
Continuous
 48
100.0
100
AcDbLine
 10
1400.000736243266
 20
159.5339217738728
 30
0.0
 11
1400.001899640716
 21
659.5339217846994
 31
0.0
  0
POINT
  5
27CD
330
27C8
100
AcDbEntity
  8
CRANE
  6
Continuous
 48
100.0
100
AcDbPoint
 10
749.9999451470793
 20
59.5399714436353
 30
0.0
  0
LINE
  5
27CE
330
27C8
100
AcDbEntity
  8
OBJECT
  6
Continuous
 48
100.0
100
AcDbLine
 10
-0.000054836680647
 20
59.54695182832438
 30
0.0
 11
1499.999945130839
 21
59.53299105894257
 31
0.0
  0
LINE
  5
27CF
330
27C8
100
AcDbEntity
  8
OBJECT
  6
Continuous
 48
100.0
100
AcDbLine
 10
0.0001778428268153
 20
159.546951830489
 30
0.0
 11
1500.000177810318
 21
159.5329910611108
 31
0.0
  0
LINE
  5
27D0
330
27C8
100
AcDbEntity
  8
OBJECT
  6
Continuous
 48
100.0
100
AcDbLine
 10
-0.0000548366515432
 20
59.54695182832438
 30
0.0
 11
0.0001778428559192
 21
159.546951830489
 31
0.0
  0
LINE
  5
27D1
330
27C8
100
AcDbEntity
  8
OBJECT
  6
Continuous
 48
100.0
100
AcDbLine
 10
1499.999945130839
 20
59.53299105894257
 30
0.0
 11
1500.000177810376
 21
159.5329910611108
 31
0.0
  0
LINE
  5
27D2
330
27C8
100
AcDbEntity
  8
OBJECT
  6
Continuous
 48
100.0
100
AcDbLine
 10
60.00189967156621
 20
659.5463934053441
 30
0.0
 11
540.0018744090921
 21
659.5419259593763
 31
0.0
  0
LINE
  5
27D3
330
27C8
100
AcDbEntity
  8
OBJECT
  6
Continuous
 48
100.0
100
AcDbLine
 10
960.0019101563376
 20
659.5380169436175
 30
0.0
 11
1440.001899639959
 21
659.5335494975151
 31
0.0
  0
LINE
  5
27D4
330
27C8
100
AcDbEntity
  8
OBJECT
  6
Continuous
 48
100.0
100
AcDbLine
 10
5675.017116805451
 20
159.4941334286886
 30
0.0
 11
5675.018280202902
 21
659.4941334395152
 31
0.0
  0
LINE
  5
27D5
330
27C8
100
AcDbEntity
  8
OBJECT
  6
Continuous
 48
100.0
100
AcDbLine
 10
6575.01711678598
 20
159.4857569670603
 30
0.0
 11
6575.018280183432
 21
659.4857569778869
 31
0.0
  0
LINE
  5
27D6
330
27C8
100
AcDbEntity
  8
OBJECT
  6
Continuous
 48
100.0
100
AcDbLine
 10
6075.017116796807
 20
159.490410556853
 30
0.0
 11
6075.018280194257
 21
659.4904105676796
 31
0.0
  0
LINE
  5
27D7
330
27C8
100
AcDbEntity
  8
OBJECT
  6
Continuous
 48
100.0
100
AcDbLine
 10
6975.017116777308
 20
159.4820340952283
 30
0.0
 11
6975.018280174758
 21
659.4820341060549
 31
0.0
  0
LINE
  5
27D8
330
27C8
100
AcDbEntity
  8
OBJECT
  6
Continuous
 48
100.0
100
AcDbLine
 10
7475.004949620867
 20
159.490410556853
 30
0.0
 11
7475.003786223417
 21
659.4904105676796
 31
0.0
  0
LINE
  5
27D9
330
27C8
100
AcDbEntity
  8
OBJECT
  6
Continuous
 48
100.0
100
AcDbLine
 10
7875.004949612223
 20
159.4941334286886
 30
0.0
 11
7875.003786214773
 21
659.4941334395152
 31
0.0
  0
LINE
  5
27DA
330
27C8
100
AcDbEntity
  8
OBJECT
  6
Continuous
 48
100.0
100
AcDbLine
 10
5575.016325697362
 20
59.49506414967982
 30
0.0
 11
7075.016325664882
 21
59.48110338029801
 31
0.0
  0
LINE
  5
27DB
330
27C8
100
AcDbEntity
  8
OBJECT
  6
Continuous
 48
100.0
100
AcDbLine
 10
5575.016558376868
 20
159.4950641518444
 30
0.0
 11
7975.005508092785
 21
159.4727270236871
 31
0.0
  0
LINE
  5
27DC
330
27C8
100
AcDbEntity
  8
OBJECT
  6
Continuous
 48
100.0
100
AcDbLine
 10
5575.01632569739
 20
59.49506414967982
 30
0.0
 11
5575.016558376898
 21
159.4950641518444
 31
0.0
  0
LINE
  5
27DD
330
27C8
100
AcDbEntity
  8
OBJECT
  6
Continuous
 48
100.0
100
AcDbLine
 10
7975.005740720284
 20
59.49506414967982
 30
0.0
 11
7975.005508040776
 21
159.4950641518444
 31
0.0
  0
LINE
  5
27DE
330
27C8
100
AcDbEntity
  8
OBJECT
  6
Continuous
 48
100.0
100
AcDbLine
 10
7075.016325664882
 20
59.48110338029801
 30
0.0
 11
7975.005740720284
 21
59.49506414967982
 31
0.0
  0
LINE
  5
27DF
330
27C8
100
AcDbEntity
  8
OBJECT
  6
Continuous
 48
100.0
100
AcDbLine
 10
5635.018280205608
 20
659.4945057266995
 30
0.0
 11
6115.018254943134
 21
659.4900382807318
 31
0.0
  0
LINE
  5
27E0
330
27C8
100
AcDbEntity
  8
OBJECT
  6
Continuous
 48
100.0
100
AcDbLine
 10
6535.01829069038
 20
659.486129264973
 30
0.0
 11
7015.018280174001
 21
659.4816618188706
 31
0.0
  0
LINE
  5
27E1
330
27C8
100
AcDbEntity
  8
OBJECT
  6
Continuous
 48
100.0
100
AcDbLine
 10
7915.003786212067
 20
659.4945057266995
 30
0.0
 11
7435.00381147454
 21
659.4900382807318
 31
0.0
  0
ENDBLK
  5
27E3
330
27C8
100
AcDbEntity
  8
0
 48
100.0
100
AcDbBlockEnd
  0
BLOCK
  5
2CFF
330
2CCB
100
AcDbEntity
  8
0
 48
100.0
100
AcDbBlockBegin
  2
A$C4BF50593
 70
     0
 10
0.0
 20
0.0
 30
0.0
  3
A$C4BF50593
  1

  0
ARC
  5
2CCC
330
2CCB
100
AcDbEntity
  8
OBJECT
  6
Continuous
 48
100.0
100
AcDbCircle
 10
589.9999683977512
 20
105.0008501798902
 30
0.0
 40
60.0
100
AcDbArc
 50
359.9997333689452
 51
89.99999999999968
  0
ARC
  5
2CCD
330
2CCB
100
AcDbEntity
  8
OBJECT
  6
Continuous
 48
100.0
100
AcDbCircle
 10
589.9999683977512
 20
275.0008501798893
 30
0.0
 40
60.0
100
AcDbArc
 50
270.0
 51
0.0002666310544806
  0
LINE
  5
2CCE
330
2CCB
100
AcDbEntity
  8
OBJECT
  6
Continuous
 48
100.0
100
AcDbLine
 10
219.7434599662083
 20
313.3304052438871
 30
0.0
 11
324.9986317902803
 21
313.3315995122448
 31
0.0
  0
LINE
  5
2CCF
330
2CCB
100
AcDbEntity
  8
OBJECT
  6
Continuous
 48
100.0
100
AcDbLine
 10
430.2552804450678
 20
313.3358023441224
 30
0.0
 11
325.0001086982083
 21
313.3315995501089
 31
0.0
  0
LINE
  5
2CD0
330
2CCB
100
AcDbEntity
  8
OBJECT
  6
Continuous
 48
100.0
100
AcDbLine
 10
324.9999683977512
 20
190.000850179892
 30
0.0
 11
-0.0000316022487823
 21
190.0008501798929
 31
0.0
  0
ARC
  5
2CD1
330
2CCB
100
AcDbEntity
  8
OBJECT
  6
Continuous
 48
100.0
100
AcDbCircle
 10
-0.0000316016376019
 20
165.0005709644965
 30
0.0
 40
60.0
100
AcDbArc
 50
270.0000000000277
 51
0.0002666310822405
  0
ARC
  5
2CD2
330
2CCB
100
AcDbEntity
  8
OBJECT
  6
Continuous
 48
100.0
100
AcDbCircle
 10
59.99996839775121
 20
105.0008501798938
 30
0.0
 40
60.0
100
AcDbArc
 50
89.99999999999968
 51
180.0002666310541
  0
LINE
  5
2CD3
330
2CCB
100
AcDbEntity
  8
OBJECT
  6
Continuous
 48
100.0
100
AcDbLine
 10
-0.0000316022487823
 20
105.0008501798938
 30
0.0
 11
324.9999683977512
 21
105.0008501798911
 31
0.0
  0
LINE
  5
2CD4
330
2CCB
100
AcDbEntity
  8
OBJECT
  6
Continuous
 48
100.0
100
AcDbLine
 10
-0.0000316022487823
 20
90.00085017989386
 30
0.0
 11
324.9999683977512
 21
90.00085017989112
 31
0.0
  0
LINE
  5
2CD5
330
2CCB
100
AcDbEntity
  8
OBJECT
  6
Continuous
 48
100.0
100
AcDbLine
 10
-0.0000316022487823
 20
290.0008501798893
 30
0.0
 11
324.9999683977512
 21
290.0008501798902
 31
0.0
  0
LINE
  5
2CD6
330
2CCB
100
AcDbEntity
  8
OBJECT
  6
Continuous
 48
100.0
100
AcDbLine
 10
-0.0000316022487823
 20
275.0008501798893
 30
0.0
 11
324.9999683977512
 21
275.0008501798902
 31
0.0
  0
ARC
  5
2CD7
330
2CCB
100
AcDbEntity
  8
OBJECT
  6
Continuous
 48
100.0
100
AcDbCircle
 10
59.99996839775121
 20
275.0008501798893
 30
0.0
 40
60.0
100
AcDbArc
 50
179.9997333689455
 51
270.0
  0
ARC
  5
2CD8
330
2CCB
100
AcDbEntity
  8
OBJECT
  6
Continuous
 48
100.0
100
AcDbCircle
 10
-0.0000316016376019
 20
215.0011293952866
 30
0.0
 40
60.0
100
AcDbArc
 50
359.9997333689175
 51
89.99999999997196
  0
ARC
  5
2CD9
330
2CCB
100
AcDbEntity
  8
OBJECT
  6
Continuous
 48
100.0
100
AcDbCircle
 10
192.4999683977512
 20
190.0008501798902
 30
0.0
 40
25.0
100
AcDbArc
 50
270.0000000000003
 51
0.0000000000003378
  0
ARC
  5
2CDA
330
2CCB
100
AcDbEntity
  8
OBJECT
  6
Continuous
 48
100.0
100
AcDbCircle
 10
192.4999683977512
 20
190.0008501798884
 30
0.0
 40
25.0
100
AcDbArc
 50
0.000000000000007
 51
90.0
  0
ARC
  5
2CDB
330
2CCB
100
AcDbEntity
  8
OBJECT
  6
Continuous
 48
100.0
100
AcDbCircle
 10
457.4999683977511
 20
190.0008501798884
 30
0.0
 40
25.0
100
AcDbArc
 50
90.0
 51
180.0
  0
ARC
  5
2CDC
330
2CCB
100
AcDbEntity
  8
OBJECT
  6
Continuous
 48
100.0
100
AcDbCircle
 10
457.4999683977511
 20
190.0008501798902
 30
0.0
 40
25.0
100
AcDbArc
 50
179.9999999999996
 51
269.9999999999997
  0
LINE
  5
2CDD
330
2CCB
100
AcDbEntity
  8
OBJECT
  6
Continuous
 48
100.0
100
AcDbLine
 10
324.9999683977512
 20
90.00085017989205
 30
0.0
 11
324.9999683977512
 21
190.000850179892
 31
0.0
  0
LINE
  5
2CDE
330
2CCB
100
AcDbEntity
  8
OBJECT
  6
Continuous
 48
100.0
100
AcDbLine
 10
649.9999683977512
 20
90.00085017989022
 30
0.0
 11
649.9999683977512
 21
105.0008501798902
 31
0.0
  0
ARC
  5
2CDF
330
2CCB
100
AcDbEntity
  8
OBJECT
  6
Continuous
 48
100.0
100
AcDbCircle
 10
649.99996839714
 20
165.0005709644929
 30
0.0
 40
60.0
100
AcDbArc
 50
179.9997333689171
 51
269.9999999999716
  0
ARC
  5
2CE0
330
2CCB
100
AcDbEntity
  8
OBJECT
  6
Continuous
 48
100.0
100
AcDbCircle
 10
409.9999683971109
 20
105.0008501798911
 30
0.0
 40
60.0
100
AcDbArc
 50
89.99999999999968
 51
180.0002666310541
  0
LINE
  5
2CE1
330
2CCB
100
AcDbEntity
  8
OBJECT
  6
Continuous
 48
100.0
100
AcDbLine
 10
649.9999683977512
 20
90.00085017989022
 30
0.0
 11
324.9999683977512
 21
90.00085017989112
 31
0.0
  0
LINE
  5
2CE2
330
2CCB
100
AcDbEntity
  8
OBJECT
  6
Continuous
 48
100.0
100
AcDbLine
 10
649.9999683977512
 20
105.0008501798902
 30
0.0
 11
324.9999683977512
 21
105.0008501798911
 31
0.0
  0
LINE
  5
2CE3
330
2CCB
100
AcDbEntity
  8
OBJECT
  6
Continuous
 48
100.0
100
AcDbLine
 10
589.9999683977512
 20
165.0008501798902
 30
0.0
 11
324.9999683977221
 21
165.000850179892
 31
0.0
  0
ARC
  5
2CE4
330
2CCB
100
AcDbEntity
  8
OBJECT
  6
Continuous
 48
100.0
100
AcDbCircle
 10
239.9999683983915
 20
105.000850179892
 30
0.0
 40
60.0
100
AcDbArc
 50
359.9997333689452
 51
89.99999999999968
  0
LINE
  5
2CE5
330
2CCB
100
AcDbEntity
  8
OBJECT
  6
Continuous
 48
100.0
100
AcDbLine
 10
59.99996839775121
 20
165.0008501798938
 30
0.0
 11
324.9999683977803
 21
165.000850179892
 31
0.0
  0
LINE
  5
2CE6
330
2CCB
100
AcDbEntity
  8
OBJECT
  6
Continuous
 48
100.0
100
AcDbLine
 10
59.99996839775121
 20
215.0008501798893
 30
0.0
 11
324.9999683977803
 21
215.0008501798893
 31
0.0
  0
ARC
  5
2CE7
330
2CCB
100
AcDbEntity
  8
OBJECT
  6
Continuous
 48
100.0
100
AcDbCircle
 10
239.9999683983915
 20
275.0008501798893
 30
0.0
 40
60.0
100
AcDbArc
 50
270.0
 51
0.0002666310544806
  0
LINE
  5
2CE8
330
2CCB
100
AcDbEntity
  8
OBJECT
  6
Continuous
 48
100.0
100
AcDbLine
 10
649.9999683977512
 20
190.0008501798893
 30
0.0
 11
324.9999683977512
 21
190.0008501798902
 31
0.0
  0
LINE
  5
2CE9
330
2CCB
100
AcDbEntity
  8
OBJECT
  6
Continuous
 48
100.0
100
AcDbLine
 10
589.9999683977512
 20
215.0008501798893
 30
0.0
 11
324.9999683977221
 21
215.0008501798893
 31
0.0
  0
LINE
  5
2CEA
330
2CCB
100
AcDbEntity
  8
OBJECT
  6
Continuous
 48
100.0
100
AcDbLine
 10
649.9999683977512
 20
275.0008501798893
 30
0.0
 11
324.9999683977512
 21
275.0008501798902
 31
0.0
  0
LINE
  5
2CEB
330
2CCB
100
AcDbEntity
  8
OBJECT
  6
Continuous
 48
100.0
100
AcDbLine
 10
649.9999683977512
 20
290.0008501798893
 30
0.0
 11
324.9999683977512
 21
290.0008501798902
 31
0.0
  0
ARC
  5
2CEC
330
2CCB
100
AcDbEntity
  8
OBJECT
  6
Continuous
 48
100.0
100
AcDbCircle
 10
409.9999683971109
 20
275.0008501798893
 30
0.0
 40
60.0
100
AcDbArc
 50
179.9997333689455
 51
270.0
  0
ARC
  5
2CED
330
2CCB
100
AcDbEntity
  8
OBJECT
  6
Continuous
 48
100.0
100
AcDbCircle
 10
649.99996839714
 20
215.0011293952866
 30
0.0
 40
60.0
100
AcDbArc
 50
90.00000000002804
 51
180.0002666310825
  0
LINE
  5
2CEE
330
2CCB
100
AcDbEntity
  8
OBJECT
  6
Continuous
 48
100.0
100
AcDbLine
 10
649.9999683977512
 20
290.0008501798893
 30
0.0
 11
649.9999683977512
 21
275.0008501798893
 31
0.0
  0
LINE
  5
2CEF
330
2CCB
100
AcDbEntity
  8
OBJECT
  6
Continuous
 48
100.0
100
AcDbLine
 10
324.9999683977512
 20
290.0008501798893
 30
0.0
 11
324.9999683977512
 21
190.0008501798893
 31
0.0
  0
LINE
  5
2CF0
330
2CCB
100
AcDbEntity
  8
OBJECT
  6
Continuous
 48
100.0
100
AcDbLine
 10
-0.0000316022487823
 20
90.00085017989386
 30
0.0
 11
-0.0000316022487823
 21
105.0008501798938
 31
0.0
  0
LINE
  5
2CF1
330
2CCB
100
AcDbEntity
  8
OBJECT
  6
Continuous
 48
100.0
100
AcDbLine
 10
-0.0000316022487823
 20
290.0008501798893
 30
0.0
 11
-0.0000316022487823
 21
275.0008501798893
 31
0.0
  0
LINE
  5
2CF2
330
2CCB
100
AcDbEntity
  8
OBJECT
  6
Continuous
 48
100.0
100
AcDbLine
 10
425.000742015778
 20
89.99995539028896
 30
0.0
 11
425.0012773937196
 21
50.00351956320082
 31
0.0
  0
LINE
  5
2CF3
330
2CCB
100
AcDbEntity
  8
OBJECT
  6
Continuous
 48
100.0
100
AcDbLine
 10
224.9977040878439
 20
50.00084238721592
 30
0.0
 11
224.9980619662965
 21
89.9976860731722
 31
0.0
  0
LINE
  5
2CF4
330
2CCB
100
AcDbEntity
  8
OBJECT
  6
Continuous
 48
100.0
100
AcDbLine
 10
244.9986026129918
 20
44.71668512806263
 30
0.0
 11
404.998602611362
 21
44.71731257426199
 31
0.0
  0
LINE
  5
2CF5
330
2CCB
100
AcDbEntity
  8
OBJECT
  6
Continuous
 48
100.0
100
AcDbLine
 10
424.9977040699159
 20
50.00351951536959
 30
0.0
 11
324.9977040789381
 21
50.00218095128821
 31
0.0
  0
LINE
  5
2CF6
330
2CCB
100
AcDbEntity
  8
OBJECT
  6
Continuous
 48
100.0
100
AcDbLine
 10
224.9977040878439
 20
50.00084238721592
 30
0.0
 11
324.9977040789381
 21
50.00218095128821
 31
0.0
  0
LINE
  5
2CF7
330
2CCB
100
AcDbEntity
  8
OBJECT
  6
Continuous
 48
100.0
100
AcDbLine
 10
244.9979717988754
 20
30.00111010182172
 30
0.0
 11
244.9977040860395
 21
50.00111010003092
 31
0.0
  0
LINE
  5
2CF8
330
2CCB
100
AcDbEntity
  8
OBJECT
  6
Continuous
 48
100.0
100
AcDbLine
 10
404.9986410843848
 20
30.00126434774756
 30
0.0
 11
404.9985887920192
 21
50.0032518143953
 31
0.0
  0
LINE
  5
2CF9
330
2CCB
100
AcDbEntity
  8
OBJECT
  6
Continuous
 48
100.0
100
AcDbLine
 10
244.9986410860147
 20
30.0006369015473
 30
0.0
 11
244.9986026129918
 21
44.71668512806263
 31
0.0
  0
LINE
  5
2CFA
330
2CCB
100
AcDbEntity
  8
OBJECT
  6
Continuous
 48
100.0
100
AcDbLine
 10
404.9986410843848
 20
30.00126434774756
 30
0.0
 11
244.9979718255054
 21
29.99912263610077
 31
0.0
  0
LINE
  5
2CFB
330
2CCB
100
AcDbEntity
  8
OBJECT
  6
Continuous
 48
100.0
100
AcDbLine
 10
424.9986052560561
 20
30.00045493184189
 30
0.0
 11
324.9986052564054
 21
30.00019349592367
 31
0.0
  0
LINE
  5
2CFC
330
2CCB
100
AcDbEntity
  8
OBJECT
  6
Continuous
 48
100.0
100
AcDbLine
 10
424.9986836868047
 20
0.0004549319437501
 30
0.0
 11
424.9986052560561
 21
30.00045493184189
 31
0.0
  0
LINE
  5
2CFD
330
2CCB
100
AcDbEntity
  8
OBJECT
  6
Continuous
 48
100.0
100
AcDbLine
 10
224.9986052567256
 20
29.99993206000545
 30
0.0
 11
324.9986052563763
 21
30.00019349592367
 31
0.0
  0
LINE
  5
2CFE
330
2CCB
100
AcDbEntity
  8
OBJECT
  6
Continuous
 48
100.0
100
AcDbLine
 10
224.9986836875032
 20
-0.0000679398926877
 30
0.0
 11
224.9986052567256
 21
29.99993206000545
 31
0.0
  0
ENDBLK
  5
2D00
330
2CCB
100
AcDbEntity
  8
0
 48
100.0
100
AcDbBlockEnd
  0
BLOCK
  5
3644
330
3640
100
AcDbEntity
  8
0
 48
100.0
100
AcDbBlockBegin
  2
A$C28EC78B4
 70
     0
 10
0.0
 20
0.0
 30
0.0
  3
A$C28EC78B4
  1

  0
LINE
  5
3641
330
3640
100
AcDbEntity
  8
OBJECT
  6
Continuous
 48
100.0
100
AcDbLine
 10
732.6830583658593
 20
2177.829140676978
 30
0.0
 11
0.0001549859589431
 21
86.14009957257804
 31
0.0
  0
ELLIPSE
  5
3642
330
3640
100
AcDbEntity
  8
OBJECT
  6
Continuous
 48
100.0
100
AcDbEllipse
 10
485.5225284032058
 20
1188.777294585619
 30
0.0
 11
98.43342235338058
 21
614.7126013467931
 31
0.0
210
0.0
220
0.0
230
0.9999999999999998
 40
0.6542229815766692
 41
5.269556325976404
 42
10.71297689417543
  0
SPLINE
  5
3643
330
3640
100
AcDbEntity
  8
OBJECT
  6
Continuous
 48
100.0
100
AcDbSpline
210
0.0
220
0.0
230
1.0
 70
     8
 71
     3
 72
    10
 73
     6
 74
     4
 42
0.0000000001
 43
0.0000000001
 44
0.0000000001
 40
0.0
 40
0.0
 40
0.0
 40
0.0
 40
335.4988168541603
 40
782.1635305551902
 40
1425.580901073073
 40
1425.580901073073
 40
1425.580901073073
 40
1425.580901073073
 10
0.0001549859589431
 20
86.14009957257804
 30
0.0
 10
101.7837387207895
 20
172.3370406893308
 30
0.0
 10
339.0764002958125
 20
373.2918590076451
 30
0.0
 10
684.5083623943126
 20
-268.047310672002
 30
0.0
 10
1000.019307817392
 20
97.17087119557467
 30
0.0
 10
1186.24860725514
 20
312.739703712381
 30
0.0
 11
0.0001549859589431
 21
86.14009957257804
 31
0.0
 11
296.5624202112376
 21
243.0167356755774
 31
0.0
 11
645.4588090085599
 21
-35.87513647169544
 31
0.0
 11
1186.24860725514
 21
312.739703712381
 31
0.0
  0
ENDBLK
  5
3645
330
3640
100
AcDbEntity
  8
0
 48
100.0
100
AcDbBlockEnd
  0
BLOCK
  5
364B
330
3647
100
AcDbEntity
  8
0
 48
100.0
100
AcDbBlockBegin
  2
A$C56EF0BF5
 70
     0
 10
0.0
 20
0.0
 30
0.0
  3
A$C56EF0BF5
  1

  0
ARC
  5
3648
330
3647
100
AcDbEntity
  8
OBJECT
100
AcDbCircle
 10
-0.0000280140666291
 20
299.9999640951864
 30
0.0
 40
300.0
100
AcDbArc
 50
270.0
 51
90.0
  0
ARC
  5
3649
330
3647
100
AcDbEntity
  8
OBJECT
100
AcDbCircle
 10
599.9999719859333
 20
299.9999640951864
 30
0.0
 40
300.0
100
AcDbArc
 50
90.0
 51
270.0
  0
CIRCLE
  5
364A
330
3647
100
AcDbEntity
  8
OBJECT
100
AcDbCircle
 10
299.9999719859334
 20
299.9999640951864
 30
0.0
 40
300.0
  0
ENDBLK
  5
364C
330
3647
100
AcDbEntity
  8
0
 48
100.0
100
AcDbBlockEnd
  0
BLOCK
  5
4111
330
4107
100
AcDbEntity
  8
0
 48
100.0
100
AcDbBlockBegin
  2
L75X6
 70
     0
 10
0.0
 20
0.0
 30
0.0
  3
L75X6
  1

  0
LINE
  5
4108
330
4107
100
AcDbEntity
  8
0
100
AcDbLine
 10
0.0
 20
75.0
 30
0.0
 11
2.0
 21
75.0
 31
0.0
  0
LINE
  5
4109
330
4107
100
AcDbEntity
  8
0
100
AcDbLine
 10
0.0
 20
0.0
 30
0.0
 11
75.0
 21
0.0
 31
0.0
  0
LINE
  5
410A
330
4107
100
AcDbEntity
  8
0
100
AcDbLine
 10
0.0
 20
0.0
 30
0.0
 11
0.0
 21
75.0
 31
0.0
  0
LINE
  5
410B
330
4107
100
AcDbEntity
  8
0
100
AcDbLine
 10
75.0
 20
0.0
 30
0.0
 11
75.0
 21
2.0
 31
0.0
  0
LINE
  5
410C
330
4107
100
AcDbEntity
  8
0
100
AcDbLine
 10
14.5
 20
6.0
 30
0.0
 11
71.0
 21
6.0
 31
0.0
  0
LINE
  5
410D
330
4107
100
AcDbEntity
  8
0
100
AcDbLine
 10
6.0
 20
14.5
 30
0.0
 11
6.0
 21
71.0
 31
0.0
  0
ARC
  5
410E
330
4107
100
AcDbEntity
  8
0
100
AcDbCircle
 10
2.0
 20
71.0
 30
0.0
 40
4.0
100
AcDbArc
 50
0.0
 51
90.0
  0
ARC
  5
410F
330
4107
100
AcDbEntity
  8
0
100
AcDbCircle
 10
71.0
 20
2.0
 30
0.0
 40
4.0
100
AcDbArc
 50
0.0
 51
90.0
  0
ARC
  5
4110
330
4107
100
AcDbEntity
  8
0
100
AcDbCircle
 10
14.5
 20
14.5
 30
0.0
 40
8.5
100
AcDbArc
 50
180.0
 51
270.0
  0
ENDBLK
  5
4112
330
4107
100
AcDbEntity
  8
0
 48
100.0
100
AcDbBlockEnd
  0
BLOCK
  5
411E
330
4114
100
AcDbEntity
  8
0
 48
100.0
100
AcDbBlockBegin
  2
L100X10
 70
     0
 10
0.0
 20
0.0
 30
0.0
  3
L100X10
  1

  0
LINE
  5
4115
330
4114
100
AcDbEntity
  8
0
100
AcDbLine
 10
0.0
 20
100.0
 30
0.0
 11
3.0
 21
100.0
 31
0.0
  0
LINE
  5
4116
330
4114
100
AcDbEntity
  8
0
100
AcDbLine
 10
0.0
 20
0.0
 30
0.0
 11
100.0
 21
0.0
 31
0.0
  0
LINE
  5
4117
330
4114
100
AcDbEntity
  8
0
100
AcDbLine
 10
0.0
 20
0.0
 30
0.0
 11
0.0
 21
100.0
 31
0.0
  0
LINE
  5
4118
330
4114
100
AcDbEntity
  8
0
100
AcDbLine
 10
100.0
 20
0.0
 30
0.0
 11
100.0
 21
3.0
 31
0.0
  0
LINE
  5
4119
330
4114
100
AcDbEntity
  8
0
100
AcDbLine
 10
20.0
 20
10.0
 30
0.0
 11
93.0
 21
10.0
 31
0.0
  0
LINE
  5
411A
330
4114
100
AcDbEntity
  8
0
100
AcDbLine
 10
10.0
 20
20.0
 30
0.0
 11
10.0
 21
93.0
 31
0.0
  0
ARC
  5
411B
330
4114
100
AcDbEntity
  8
0
100
AcDbCircle
 10
20.0
 20
20.0
 30
0.0
 40
10.0
100
AcDbArc
 50
180.0
 51
270.0
  0
ARC
  5
411C
330
4114
100
AcDbEntity
  8
0
100
AcDbCircle
 10
3.0
 20
93.0
 30
0.0
 40
7.0
100
AcDbArc
 50
0.0
 51
90.0
  0
ARC
  5
411D
330
4114
100
AcDbEntity
  8
0
100
AcDbCircle
 10
93.0
 20
3.0
 30
0.0
 40
7.0
100
AcDbArc
 50
0.0
 51
90.0
  0
ENDBLK
  5
411F
330
4114
100
AcDbEntity
  8
0
 48
100.0
100
AcDbBlockEnd
  0
BLOCK
  5
4460
330
445F
100
AcDbEntity
  8
0
 48
100.0
100
AcDbBlockBegin
  2
*D7
 70
     1
 10
0.0
 20
0.0
 30
0.0
  3
*D7
  1

  0
LINE
  5
4AAD
330
445F
100
AcDbEntity
  8
DIM
  6
Continuous
 62
     0
 48
100.0
370
    -2
100
AcDbLine
 10
34841.85571369322
 20
-19781.54890480247
 30
0.0
 11
37133.85734693106
 21
-19781.54890480247
 31
0.0
  0
LINE
  5
4AAE
330
445F
100
AcDbEntity
  8
DIM
  6
Continuous
 62
     0
 48
100.0
370
    -2
100
AcDbLine
 10
34841.77194908471
 20
-31781.54890451012
 30
0.0
 11
37133.85734693106
 21
-31781.54890451012
 31
0.0
  0
LINE
  5
4AAF
330
445F
100
AcDbEntity
  8
DIM
  6
Continuous
 62
     0
 48
100.0
370
    -2
100
AcDbLine
 10
36946.35734693107
 20
-20156.54890480247
 30
0.0
 11
36946.35734693107
 21
-31406.54890451012
 31
0.0
  0
SOLID
  5
4AB0
330
445F
100
AcDbEntity
  8
DIM
  6
Continuous
 62
     0
 48
100.0
100
AcDbTrace
 10
36883.85734693107
 20
-20156.54890480247
 30
0.0
 11
37008.85734693107
 21
-20156.54890480247
 31
0.0
 12
36946.35734693107
 22
-19781.54890480247
 32
0.0
 13
36946.35734693107
 23
-19781.54890480247
 33
0.0
  0
SOLID
  5
4AB1
330
445F
100
AcDbEntity
  8
DIM
  6
Continuous
 62
     0
 48
100.0
100
AcDbTrace
 10
36883.85734693107
 20
-31406.54890451012
 30
0.0
 11
37008.85734693107
 21
-31406.54890451012
 31
0.0
 12
36946.35734693107
 22
-31781.54890451012
 32
0.0
 13
36946.35734693107
 23
-31781.54890451012
 33
0.0
  0
MTEXT
  5
4AB2
330
445F
100
AcDbEntity
  8
DIM
  6
Continuous
 62
     0
 48
100.0
100
AcDbMText
 10
36665.10734693107
 20
-25781.54890465629
 30
0.0
 40
375.0
 41
0.0
 71
     5
 72
     1
  1
\A1;12000
 11
0.0000000000000001
 21
1.0
 31
0.0
 73
     1
 44
1.0
  0
POINT
  5
4AB3
330
445F
100
AcDbEntity
  8
DEFPOINTS
  6
Continuous
 62
     0
 48
100.0
100
AcDbPoint
 10
34541.85571369321
 20
-19781.54890480247
 30
0.0
  0
POINT
  5
4AB4
330
445F
100
AcDbEntity
  8
DEFPOINTS
  6
Continuous
 62
     0
 48
100.0
100
AcDbPoint
 10
34541.77194908471
 20
-31781.54890451012
 30
0.0
  0
POINT
  5
4AB5
330
445F
100
AcDbEntity
  8
DEFPOINTS
  6
Continuous
 62
     0
 48
100.0
100
AcDbPoint
 10
36946.35734693107
 20
-31781.54890451012
 30
0.0
  0
ENDBLK
  5
446A
330
445F
100
AcDbEntity
  8
0
 48
100.0
100
AcDbBlockEnd
  0
BLOCK
  5
4487
330
447B
100
AcDbEntity
  8
0
 48
100.0
100
AcDbBlockBegin
  2
*D8
 70
     1
 10
0.0
 20
0.0
 30
0.0
  3
*D8
  1

  0
LINE
  5
4A7B
330
447B
100
AcDbEntity
  8
DIM
  6
Continuous
 62
     0
 48
100.0
370
    -2
100
AcDbLine
 10
8291.921367759519
 20
-15113.44987873838
 30
0.0
 11
8291.911419825527
 21
-15906.87608802397
 31
0.0
  0
LINE
  5
4A7C
330
447B
100
AcDbEntity
  8
DIM
  6
Continuous
 62
     0
 48
100.0
370
    -2
100
AcDbLine
 10
5291.930144276438
 20
-13713.44434675818
 30
0.0
 11
5291.902643622009
 21
-15906.83847407962
 31
0.0
  0
LINE
  5
4A7D
330
447B
100
AcDbEntity
  8
DIM
  6
Continuous
 62
     0
 48
100.0
370
    -2
100
AcDbLine
 10
7916.913770719645
 20
-15719.37138630942
 30
0.0
 11
5666.904994457178
 21
-15719.34317582365
 31
0.0
  0
SOLID
  5
4A7E
330
447B
100
AcDbEntity
  8
DIM
  6
Continuous
 62
     0
 48
100.0
100
AcDbTrace
 10
7916.914554341193
 20
-15656.87138631433
 30
0.0
 11
7916.912987098097
 21
-15781.87138630451
 31
0.0
 12
8291.91377069017
 22
-15719.37608803871
 32
0.0
 13
8291.91377069017
 23
-15719.37608803871
 33
0.0
  0
SOLID
  5
4A7F
330
447B
100
AcDbEntity
  8
DIM
  6
Continuous
 62
     0
 48
100.0
100
AcDbTrace
 10
5666.905778078726
 20
-15656.84317582856
 30
0.0
 11
5666.90421083563
 21
-15781.84317581873
 31
0.0
 12
5291.904994486653
 22
-15719.33847409436
 32
0.0
 13
5291.904994486653
 23
-15719.33847409436
 33
0.0
  0
MTEXT
  5
4A80
330
447B
100
AcDbEntity
  8
DIM
  6
Continuous
 62
     0
 48
100.0
100
AcDbMText
 10
6791.912908885379
 20
-15438.10728108864
 30
0.0
 40
375.0
 41
0.0
 71
     5
 72
     1
  1
\A1;3000
 11
0.9999999999213999
 21
-0.0000125379447701
 31
0.0
 73
     1
 44
1.0
  0
POINT
  5
4A81
330
447B
100
AcDbEntity
  8
DEFPOINTS
  6
Continuous
 62
     0
 48
100.0
100
AcDbPoint
 10
8291.925129142949
 20
-14813.44987876196
 30
0.0
  0
POINT
  5
4A82
330
447B
100
AcDbEntity
  8
DEFPOINTS
  6
Continuous
 62
     0
 48
100.0
100
AcDbPoint
 10
5291.933905659869
 20
-13413.44434678176
 30
0.0
  0
POINT
  5
4A83
330
447B
100
AcDbEntity
  8
DEFPOINTS
  6
Continuous
 62
     0
 48
100.0
100
AcDbPoint
 10
5291.904994486653
 20
-15719.33847409436
 30
0.0
  0
ENDBLK
  5
4491
330
447B
100
AcDbEntity
  8
0
 48
100.0
100
AcDbBlockEnd
  0
BLOCK
  5
4493
330
4492
100
AcDbEntity
  8
0
 48
100.0
100
AcDbBlockBegin
  2
*D9
 70
     1
 10
0.0
 20
0.0
 30
0.0
  3
*D9
  1

  0
LINE
  5
4A84
330
4492
100
AcDbEntity
  8
DIM
  6
Continuous
 62
     0
 48
100.0
370
    -2
100
AcDbLine
 10
4991.93390565987
 20
-13413.44434678176
 30
0.0
 11
4380.213544932835
 21
-13413.44434678176
 31
0.0
  0
LINE
  5
4A85
330
4492
100
AcDbEntity
  8
DIM
  6
Continuous
 62
     0
 48
100.0
370
    -2
100
AcDbLine
 10
5264.341863285394
 20
-14813.44484896379
 30
0.0
 11
4380.213544932835
 21
-14813.44484896379
 31
0.0
  0
LINE
  5
4A86
330
4492
100
AcDbEntity
  8
DIM
  6
Continuous
 62
     0
 48
100.0
370
    -2
100
AcDbLine
 10
4567.713544932835
 20
-13788.44434678176
 30
0.0
 11
4567.713544932835
 21
-14438.44484896379
 31
0.0
  0
SOLID
  5
4A87
330
4492
100
AcDbEntity
  8
DIM
  6
Continuous
 62
     0
 48
100.0
100
AcDbTrace
 10
4505.213544932835
 20
-13788.44434678176
 30
0.0
 11
4630.213544932835
 21
-13788.44434678176
 31
0.0
 12
4567.713544932835
 22
-13413.44434678176
 32
0.0
 13
4567.713544932835
 23
-13413.44434678176
 33
0.0
  0
SOLID
  5
4A88
330
4492
100
AcDbEntity
  8
DIM
  6
Continuous
 62
     0
 48
100.0
100
AcDbTrace
 10
4505.213544932835
 20
-14438.44484896379
 30
0.0
 11
4630.213544932835
 21
-14438.44484896379
 31
0.0
 12
4567.713544932835
 22
-14813.44484896379
 32
0.0
 13
4567.713544932835
 23
-14813.44484896379
 33
0.0
  0
MTEXT
  5
4A89
330
4492
100
AcDbEntity
  8
DIM
  6
Continuous
 62
     0
 48
100.0
100
AcDbMText
 10
4286.463544932836
 20
-14113.44459787277
 30
0.0
 40
375.0
 41
0.0
 71
     5
 72
     1
  1
\A1;1400
 11
0.0000000000000001
 21
1.0
 31
0.0
 73
     1
 44
1.0
  0
POINT
  5
4A8A
330
4492
100
AcDbEntity
  8
DEFPOINTS
  6
Continuous
 62
     0
 48
100.0
100
AcDbPoint
 10
5291.933905659869
 20
-13413.44434678176
 30
0.0
  0
POINT
  5
4A8B
330
4492
100
AcDbEntity
  8
DEFPOINTS
  6
Continuous
 62
     0
 48
100.0
100
AcDbPoint
 10
5564.341863285394
 20
-14813.44484896379
 30
0.0
  0
POINT
  5
4A8C
330
4492
100
AcDbEntity
  8
DEFPOINTS
  6
Continuous
 62
     0
 48
100.0
100
AcDbPoint
 10
4567.713544932835
 20
-14813.44484896379
 30
0.0
  0
ENDBLK
  5
449D
330
4492
100
AcDbEntity
  8
0
 48
100.0
100
AcDbBlockEnd
  0
BLOCK
  5
44AC
330
44A0
100
AcDbEntity
  8
0
 48
100.0
100
AcDbBlockBegin
  2
*D10
 70
     1
 10
0.0
 20
0.0
 30
0.0
  3
*D10
  1

  0
LINE
  5
4A72
330
44A0
100
AcDbEntity
  8
DIM
  6
Continuous
 62
     0
 48
100.0
370
    -2
100
AcDbLine
 10
35591.90224863897
 20
-13413.6361771383
 30
0.0
 11
36203.62260931792
 21
-13413.6438468544
 31
0.0
  0
LINE
  5
4A73
330
44A0
100
AcDbEntity
  8
DIM
  6
Continuous
 62
     0
 48
100.0
370
    -2
100
AcDbLine
 10
35319.47673790588
 20
-14813.63326377437
 30
0.0
 11
36203.60505618895
 21
-14813.64434892639
 31
0.0
  0
LINE
  5
4A74
330
44A0
100
AcDbEntity
  8
DIM
  6
Continuous
 62
     0
 48
100.0
370
    -2
100
AcDbLine
 10
36016.11790760337
 20
-13788.64149596028
 30
0.0
 11
36016.10975793297
 21
-14438.64199809123
 31
0.0
  0
SOLID
  5
4A75
330
44A0
100
AcDbEntity
  8
DIM
  6
Continuous
 62
     0
 48
100.0
100
AcDbTrace
 10
35953.61790760828
 20
-13788.64071233873
 30
0.0
 11
36078.61790759846
 21
-13788.64227958183
 31
0.0
 12
36016.12260933265
 22
-13413.64149598975
 32
0.0
 13
36016.12260933265
 23
-13413.64149598975
 33
0.0
  0
SOLID
  5
4A76
330
44A0
100
AcDbEntity
  8
DIM
  6
Continuous
 62
     0
 48
100.0
100
AcDbTrace
 10
35953.60975793789
 20
-14438.64121446968
 30
0.0
 11
36078.60975792806
 21
-14438.64278171277
 31
0.0
 12
36016.10505620369
 22
-14813.64199806175
 32
0.0
 13
36016.10505620369
 23
-14813.64199806175
 33
0.0
  0
MTEXT
  5
4A77
330
44A0
100
AcDbEntity
  8
DIM
  6
Continuous
 62
     0
 48
100.0
100
AcDbMText
 10
35734.86383279028
 20
-14113.63822072878
 30
0.0
 40
375.0
 41
0.0
 71
     5
 72
     1
  1
\A1;1400
 11
0.0000125379447701
 21
0.9999999999213999
 31
0.0
 73
     1
 44
1.0
  0
POINT
  5
4A78
330
44A0
100
AcDbEntity
  8
DEFPOINTS
  6
Continuous
 62
     0
 48
100.0
100
AcDbPoint
 10
35291.90224866255
 20
-13413.63241575487
 30
0.0
  0
POINT
  5
4A79
330
44A0
100
AcDbEntity
  8
DEFPOINTS
  6
Continuous
 62
     0
 48
100.0
100
AcDbPoint
 10
35019.47673792945
 20
-14813.62950239094
 30
0.0
  0
POINT
  5
4A7A
330
44A0
100
AcDbEntity
  8
DEFPOINTS
  6
Continuous
 62
     0
 48
100.0
100
AcDbPoint
 10
36016.10505620369
 20
-14813.64199806175
 30
0.0
  0
ENDBLK
  5
44B6
330
44A0
100
AcDbEntity
  8
0
 48
100.0
100
AcDbBlockEnd
  0
BLOCK
  5
44B8
330
44B7
100
AcDbEntity
  8
0
 48
100.0
100
AcDbBlockBegin
  2
*D11
 70
     1
 10
0.0
 20
0.0
 30
0.0
  3
*D11
  1

  0
LINE
  5
4A4C
330
44B7
100
AcDbEntity
  8
DIM
  6
Continuous
 62
     0
 48
100.0
370
    -2
100
AcDbLine
 10
5291.901944865117
 20
-13878.83884357656
 30
0.0
 11
5291.901944865117
 21
-16695.28675881075
 31
0.0
  0
LINE
  5
4A4D
330
44B7
100
AcDbEntity
  8
DIM
  6
Continuous
 62
     0
 48
100.0
370
    -2
100
AcDbLine
 10
35291.90047792278
 20
-13879.1596619638
 30
0.0
 11
35291.90047792278
 21
-16695.28675881075
 31
0.0
  0
LINE
  5
4A4E
330
44B7
100
AcDbEntity
  8
DIM
  6
Continuous
 62
     0
 48
100.0
370
    -2
100
AcDbLine
 10
5666.901944865117
 20
-16507.78675881074
 30
0.0
 11
34916.90047792278
 21
-16507.78675881074
 31
0.0
  0
SOLID
  5
4A4F
330
44B7
100
AcDbEntity
  8
DIM
  6
Continuous
 62
     0
 48
100.0
100
AcDbTrace
 10
5666.901944865117
 20
-16445.28675881075
 30
0.0
 11
5666.901944865117
 21
-16570.28675881075
 31
0.0
 12
5291.901944865117
 22
-16507.78675881074
 32
0.0
 13
5291.901944865117
 23
-16507.78675881074
 33
0.0
  0
SOLID
  5
4A50
330
44B7
100
AcDbEntity
  8
DIM
  6
Continuous
 62
     0
 48
100.0
100
AcDbTrace
 10
34916.90047792278
 20
-16445.28675881075
 30
0.0
 11
34916.90047792278
 21
-16570.28675881075
 31
0.0
 12
35291.90047792278
 22
-16507.78675881074
 32
0.0
 13
35291.90047792278
 23
-16507.78675881074
 33
0.0
  0
MTEXT
  5
4A51
330
44B7
100
AcDbEntity
  8
DIM
  6
Continuous
 62
     0
 48
100.0
100
AcDbMText
 10
20291.90121139395
 20
-16226.53675881075
 30
0.0
 40
375.0
 41
0.0
 71
     5
 72
     1
  1
\A1;30000
 73
     1
 44
1.0
  0
POINT
  5
4A52
330
44B7
100
AcDbEntity
  8
DEFPOINTS
  6
Continuous
 62
     0
 48
100.0
100
AcDbPoint
 10
5291.901944865117
 20
-13578.83884357656
 30
0.0
  0
POINT
  5
4A53
330
44B7
100
AcDbEntity
  8
DEFPOINTS
  6
Continuous
 62
     0
 48
100.0
100
AcDbPoint
 10
35291.90047792278
 20
-13579.1596619638
 30
0.0
  0
POINT
  5
4A54
330
44B7
100
AcDbEntity
  8
DEFPOINTS
  6
Continuous
 62
     0
 48
100.0
100
AcDbPoint
 10
35291.90047792278
 20
-16507.78675881074
 30
0.0
  0
ENDBLK
  5
44C2
330
44B7
100
AcDbEntity
  8
0
 48
100.0
100
AcDbBlockEnd
  0
BLOCK
  5
466D
330
4600
100
AcDbEntity
  8
0
 48
100.0
100
AcDbBlockBegin
  2
*D12
 70
     1
 10
0.0
 20
0.0
 30
0.0
  3
*D12
  1

  0
LINE
  5
4A8D
330
4600
100
AcDbEntity
  8
DIM
  6
Continuous
 62
     0
 48
100.0
370
    -2
100
AcDbLine
 10
15054.45106905393
 20
-6563.063796281435
 30
0.0
 11
15054.45106905393
 21
-6461.777741405531
 31
0.0
  0
LINE
  5
4A8E
330
4600
100
AcDbEntity
  8
DIM
  6
Continuous
 62
     0
 48
100.0
370
    -2
100
AcDbLine
 10
25529.47473669056
 20
-6563.170758317984
 30
0.0
 11
25529.47473669056
 21
-6461.777741405531
 31
0.0
  0
LINE
  5
4A8F
330
4600
100
AcDbEntity
  8
DIM
  6
Continuous
 62
     0
 48
100.0
370
    -2
100
AcDbLine
 10
15429.45106905393
 20
-6274.277741405531
 30
0.0
 11
25154.47473669056
 21
-6274.277741405531
 31
0.0
  0
SOLID
  5
4A90
330
4600
100
AcDbEntity
  8
DIM
  6
Continuous
 62
     0
 48
100.0
100
AcDbTrace
 10
15429.45106905393
 20
-6211.777741405531
 30
0.0
 11
15429.45106905393
 21
-6336.777741405531
 31
0.0
 12
15054.45106905393
 22
-6274.277741405531
 32
0.0
 13
15054.45106905393
 23
-6274.277741405531
 33
0.0
  0
SOLID
  5
4A91
330
4600
100
AcDbEntity
  8
DIM
  6
Continuous
 62
     0
 48
100.0
100
AcDbTrace
 10
25154.47473669056
 20
-6211.777741405531
 30
0.0
 11
25154.47473669056
 21
-6336.777741405531
 31
0.0
 12
25529.47473669056
 22
-6274.277741405531
 32
0.0
 13
25529.47473669056
 23
-6274.277741405531
 33
0.0
  0
MTEXT
  5
4A92
330
4600
100
AcDbEntity
  8
DIM
  6
Continuous
 62
     0
 48
100.0
100
AcDbMText
 10
20356.53846409242
 20
-5993.027741405531
 30
0.0
 40
375.0
 41
0.0
 71
     5
 72
     1
  1
\A1;10450
 73
     1
 44
1.0
  0
POINT
  5
4A93
330
4600
100
AcDbEntity
  8
DEFPOINTS
  6
Continuous
 62
     0
 48
100.0
100
AcDbPoint
 10
15054.45106905393
 20
-6263.063796281435
 30
0.0
  0
POINT
  5
4A94
330
4600
100
AcDbEntity
  8
DEFPOINTS
  6
Continuous
 62
     0
 48
100.0
100
AcDbPoint
 10
25529.47473669056
 20
-6263.170758317985
 30
0.0
  0
POINT
  5
4A95
330
4600
100
AcDbEntity
  8
DEFPOINTS
  6
Continuous
 62
     0
 48
100.0
100
AcDbPoint
 10
25529.47473669056
 20
-6274.277741405531
 30
0.0
  0
ENDBLK
  5
4677
330
4600
100
AcDbEntity
  8
0
 48
100.0
100
AcDbBlockEnd
  0
BLOCK
  5
4627
330
4626
100
AcDbEntity
  8
0
 48
100.0
100
AcDbBlockBegin
  2
*D13
 70
     1
 10
0.0
 20
0.0
 30
0.0
  3
*D13
  1

  0
LINE
  5
4A69
330
4626
100
AcDbEntity
  8
DIM
  6
Continuous
 62
     0
 48
100.0
370
    -2
100
AcDbLine
 10
34841.9103986234
 20
-12113.58383238161
 30
0.0
 11
37077.2185017048
 21
-12113.58383238161
 31
0.0
  0
LINE
  5
4A6A
330
4626
100
AcDbEntity
  8
DIM
  6
Continuous
 62
     0
 48
100.0
370
    -2
100
AcDbLine
 10
34841.88152453335
 20
-14813.62439515321
 30
0.0
 11
37077.2185017048
 21
-14813.62439515321
 31
0.0
  0
LINE
  5
4A6B
330
4626
100
AcDbEntity
  8
DIM
  6
Continuous
 62
     0
 48
100.0
370
    -2
100
AcDbLine
 10
36889.71850170481
 20
-12488.58383238161
 30
0.0
 11
36889.71850170481
 21
-14438.62439515321
 31
0.0
  0
SOLID
  5
4A6C
330
4626
100
AcDbEntity
  8
DIM
  6
Continuous
 62
     0
 48
100.0
100
AcDbTrace
 10
36827.21850170481
 20
-12488.58383238161
 30
0.0
 11
36952.2185017048
 21
-12488.58383238161
 31
0.0
 12
36889.71850170481
 22
-12113.58383238161
 32
0.0
 13
36889.71850170481
 23
-12113.58383238161
 33
0.0
  0
SOLID
  5
4A6D
330
4626
100
AcDbEntity
  8
DIM
  6
Continuous
 62
     0
 48
100.0
100
AcDbTrace
 10
36827.21850170481
 20
-14438.62439515321
 30
0.0
 11
36952.2185017048
 21
-14438.62439515321
 31
0.0
 12
36889.71850170481
 22
-14813.62439515321
 32
0.0
 13
36889.71850170481
 23
-14813.62439515321
 33
0.0
  0
MTEXT
  5
4A6E
330
4626
100
AcDbEntity
  8
DIM
  6
Continuous
 62
     0
 48
100.0
100
AcDbMText
 10
36608.4685017048
 20
-13463.6041137674
 30
0.0
 40
375.0
 41
0.0
 71
     5
 72
     1
  1
\A1;2700
 11
0.0000000000000001
 21
1.0
 31
0.0
 73
     1
 44
1.0
  0
POINT
  5
4A6F
330
4626
100
AcDbEntity
  8
DEFPOINTS
  6
Continuous
 62
     0
 48
100.0
100
AcDbPoint
 10
34541.9103986234
 20
-12113.58383238161
 30
0.0
  0
POINT
  5
4A70
330
4626
100
AcDbEntity
  8
DEFPOINTS
  6
Continuous
 62
     0
 48
100.0
100
AcDbPoint
 10
34541.88152453335
 20
-14813.62439515321
 30
0.0
  0
POINT
  5
4A71
330
4626
100
AcDbEntity
  8
DEFPOINTS
  6
Continuous
 62
     0
 48
100.0
100
AcDbPoint
 10
36889.71850170481
 20
-14813.62439515321
 30
0.0
  0
ENDBLK
  5
4631
330
4626
100
AcDbEntity
  8
0
 48
100.0
100
AcDbBlockEnd
  0
BLOCK
  5
4634
330
4633
100
AcDbEntity
  8
0
 48
100.0
100
AcDbBlockBegin
  2
*D14
 70
     1
 10
0.0
 20
0.0
 30
0.0
  3
*D14
  1

  0
LINE
  5
4A5E
330
4633
100
AcDbEntity
  8
DIM
  6
Continuous
 62
     0
 48
100.0
370
    -2
100
AcDbLine
 10
34841.9103986234
 20
-12113.58383238161
 30
0.0
 11
37077.2185017048
 21
-12113.58383238161
 31
0.0
  0
LINE
  5
4A5F
330
4633
100
AcDbEntity
  8
DIM
  6
Continuous
 62
     0
 48
100.0
370
    -2
100
AcDbLine
 10
35591.91942676604
 20
-12013.59081284599
 30
0.0
 11
37077.2185017048
 21
-12013.59081284599
 31
0.0
  0
LINE
  5
4A60
330
4633
100
AcDbEntity
  8
DIM
  6
Continuous
 62
     0
 48
100.0
370
    -2
100
AcDbLine
 10
36889.71850170481
 20
-12488.58383238161
 30
0.0
 11
36889.71850170481
 21
-12863.58383238161
 31
0.0
  0
LINE
  5
4A61
330
4633
100
AcDbEntity
  8
DIM
  6
Continuous
 62
     0
 48
100.0
370
    -2
100
AcDbLine
 10
36889.71850170481
 20
-11638.59081284599
 30
0.0
 11
36889.71850170481
 21
-10326.09081284599
 31
0.0
  0
LINE
  5
4A62
330
4633
100
AcDbEntity
  8
DIM
  6
Continuous
 62
     0
 48
100.0
370
    -2
100
AcDbLine
 10
36889.71850170481
 20
-12113.58383238161
 30
0.0
 11
36889.71850170481
 21
-12013.59081284599
 31
0.0
  0
SOLID
  5
4A63
330
4633
100
AcDbEntity
  8
DIM
  6
Continuous
 62
     0
 48
100.0
100
AcDbTrace
 10
36827.21850170481
 20
-12488.58383238161
 30
0.0
 11
36952.2185017048
 21
-12488.58383238161
 31
0.0
 12
36889.71850170481
 22
-12113.58383238161
 32
0.0
 13
36889.71850170481
 23
-12113.58383238161
 33
0.0
  0
SOLID
  5
4A64
330
4633
100
AcDbEntity
  8
DIM
  6
Continuous
 62
     0
 48
100.0
100
AcDbTrace
 10
36827.21850170481
 20
-11638.59081284599
 30
0.0
 11
36952.2185017048
 21
-11638.59081284599
 31
0.0
 12
36889.71850170481
 22
-12013.59081284599
 32
0.0
 13
36889.71850170481
 23
-12013.59081284599
 33
0.0
  0
MTEXT
  5
4A65
330
4633
100
AcDbEntity
  8
DIM
  6
Continuous
 62
     0
 48
100.0
100
AcDbMText
 10
36608.4685017048
 20
-10794.84081284598
 30
0.0
 40
375.0
 41
0.0
 71
     5
 72
     1
  1
\A1;100
 11
0.0000000000000001
 21
1.0
 31
0.0
 73
     1
 44
1.0
  0
POINT
  5
4A66
330
4633
100
AcDbEntity
  8
DEFPOINTS
  6
Continuous
 62
     0
 48
100.0
100
AcDbPoint
 10
34541.9103986234
 20
-12113.58383238161
 30
0.0
  0
POINT
  5
4A67
330
4633
100
AcDbEntity
  8
DEFPOINTS
  6
Continuous
 62
     0
 48
100.0
100
AcDbPoint
 10
35291.91942676604
 20
-12013.59081284599
 30
0.0
  0
POINT
  5
4A68
330
4633
100
AcDbEntity
  8
DEFPOINTS
  6
Continuous
 62
     0
 48
100.0
100
AcDbPoint
 10
36889.71850170481
 20
-12013.59081284599
 30
0.0
  0
ENDBLK
  5
4640
330
4633
100
AcDbEntity
  8
0
 48
100.0
100
AcDbBlockEnd
  0
BLOCK
  5
4665
330
4664
100
AcDbEntity
  8
0
 48
100.0
100
AcDbBlockBegin
  2
*D15
 70
     1
 10
0.0
 20
0.0
 30
0.0
  3
*D15
  1

  0
LINE
  5
4B67
330
4664
100
AcDbEntity
  8
DIM
  6
Continuous
 62
     0
 48
100.0
100
AcDbLine
 10
20883.41370060936
 20
-6984.321397731753
 30
0.0
 11
20332.75085100803
 21
-6593.942830096506
 31
0.0
  0
MTEXT
  5
4B68
330
4664
100
AcDbEntity
  8
DIM
  6
Continuous
 62
     0
 48
100.0
100
AcDbMText
 10
20734.33013148139
 20
-6740.730368717827
 30
0.0
 40
150.0
 41
0.0
 71
     5
 72
     1
  1
\A1;R100
 11
0.8157968142241863
 21
-0.5783386187188855
 31
0.0
 73
     1
 44
1.0
  0
SOLID
  5
4B69
330
4664
100
AcDbEntity
  8
DIM
  6
Continuous
 62
     0
 48
100.0
100
AcDbTrace
 10
20347.20931647601
 20
-6573.547909740901
 30
0.0
 11
20318.29238554006
 21
-6614.33775045211
 31
0.0
 12
20210.3813288744
 22
-6507.192037288674
 32
0.0
 13
20210.3813288744
 23
-6507.192037288674
 33
0.0
  0
POINT
  5
4B6A
330
4664
100
AcDbEntity
  8
DEFPOINTS
  6
Continuous
 62
     0
 48
100.0
100
AcDbPoint
 10
20210.3813288744
 20
-6507.192037288674
 30
0.0
  0
POINT
  5
4B6B
330
4664
100
AcDbEntity
  8
DEFPOINTS
  6
Continuous
 62
     0
 48
100.0
100
AcDbPoint
 10
20291.96101029683
 20
-6565.025899160564
 30
0.0
  0
ENDBLK
  5
466B
330
4664
100
AcDbEntity
  8
0
 48
100.0
100
AcDbBlockEnd
  0
BLOCK
  5
468B
330
468A
100
AcDbEntity
  8
0
 48
100.0
100
AcDbBlockBegin
  2
*D16
 70
     1
 10
0.0
 20
0.0
 30
0.0
  3
*D16
  1

  0
LINE
  5
4A96
330
468A
100
AcDbEntity
  8
DIM
  6
Continuous
 62
     0
 48
100.0
370
    -2
100
AcDbLine
 10
14291.94408418929
 20
-9564.988285252216
 30
0.0
 11
14291.94408418929
 21
-10531.79737067749
 31
0.0
  0
LINE
  5
4A97
330
468A
100
AcDbEntity
  8
DIM
  6
Continuous
 62
     0
 48
100.0
370
    -2
100
AcDbLine
 10
26291.94408395349
 20
-9565.063512920836
 30
0.0
 11
26291.94408395349
 21
-10531.79737067749
 31
0.0
  0
LINE
  5
4A98
330
468A
100
AcDbEntity
  8
DIM
  6
Continuous
 62
     0
 48
100.0
370
    -2
100
AcDbLine
 10
14666.94408418929
 20
-10344.29737067749
 30
0.0
 11
25916.94408395349
 21
-10344.29737067749
 31
0.0
  0
SOLID
  5
4A99
330
468A
100
AcDbEntity
  8
DIM
  6
Continuous
 62
     0
 48
100.0
100
AcDbTrace
 10
14666.94408418929
 20
-10281.79737067749
 30
0.0
 11
14666.94408418929
 21
-10406.79737067749
 31
0.0
 12
14291.94408418929
 22
-10344.29737067749
 32
0.0
 13
14291.94408418929
 23
-10344.29737067749
 33
0.0
  0
SOLID
  5
4A9A
330
468A
100
AcDbEntity
  8
DIM
  6
Continuous
 62
     0
 48
100.0
100
AcDbTrace
 10
25916.94408395349
 20
-10281.79737067749
 30
0.0
 11
25916.94408395349
 21
-10406.79737067749
 31
0.0
 12
26291.94408395349
 22
-10344.29737067749
 32
0.0
 13
26291.94408395349
 23
-10344.29737067749
 33
0.0
  0
MTEXT
  5
4A9B
330
468A
100
AcDbEntity
  8
DIM
  6
Continuous
 62
     0
 48
100.0
100
AcDbMText
 10
20291.94408407139
 20
-10063.04737067749
 30
0.0
 40
375.0
 41
0.0
 71
     5
 72
     1
  1
\A1;12000
 73
     1
 44
1.0
  0
POINT
  5
4A9C
330
468A
100
AcDbEntity
  8
DEFPOINTS
  6
Continuous
 62
     0
 48
100.0
100
AcDbPoint
 10
14291.94408418929
 20
-9264.988285252215
 30
0.0
  0
POINT
  5
4A9D
330
468A
100
AcDbEntity
  8
DEFPOINTS
  6
Continuous
 62
     0
 48
100.0
100
AcDbPoint
 10
26291.94408395349
 20
-9265.063512920837
 30
0.0
  0
POINT
  5
4A9E
330
468A
100
AcDbEntity
  8
DEFPOINTS
  6
Continuous
 62
     0
 48
100.0
100
AcDbPoint
 10
26291.94408395349
 20
-10344.29737067749
 30
0.0
  0
ENDBLK
  5
4695
330
468A
100
AcDbEntity
  8
0
 48
100.0
100
AcDbBlockEnd
  0
BLOCK
  5
46C0
330
46BF
100
AcDbEntity
  8
0
 48
100.0
100
AcDbBlockBegin
  2
*D17
 70
     1
 10
0.0
 20
0.0
 30
0.0
  3
*D17
  1

  0
LINE
  5
4A55
330
46BF
100
AcDbEntity
  8
DIM
  6
Continuous
 62
     0
 48
100.0
370
    -2
100
AcDbLine
 10
32591.89204197365
 20
-15113.6035420695
 30
0.0
 11
32591.89204197365
 21
-16116.22323361589
 31
0.0
  0
LINE
  5
4A56
330
46BF
100
AcDbEntity
  8
DIM
  6
Continuous
 62
     0
 48
100.0
370
    -2
100
AcDbLine
 10
35291.88727653687
 20
-15113.6324156748
 30
0.0
 11
35291.88727653687
 21
-16116.22323361589
 31
0.0
  0
LINE
  5
4A57
330
46BF
100
AcDbEntity
  8
DIM
  6
Continuous
 62
     0
 48
100.0
370
    -2
100
AcDbLine
 10
32966.89204197364
 20
-15928.72323361589
 30
0.0
 11
34916.88727653686
 21
-15928.72323361589
 31
0.0
  0
SOLID
  5
4A58
330
46BF
100
AcDbEntity
  8
DIM
  6
Continuous
 62
     0
 48
100.0
100
AcDbTrace
 10
32966.89204197364
 20
-15866.22323361589
 30
0.0
 11
32966.89204197364
 21
-15991.22323361589
 31
0.0
 12
32591.89204197365
 22
-15928.72323361589
 32
0.0
 13
32591.89204197365
 23
-15928.72323361589
 33
0.0
  0
SOLID
  5
4A59
330
46BF
100
AcDbEntity
  8
DIM
  6
Continuous
 62
     0
 48
100.0
100
AcDbTrace
 10
34916.88727653686
 20
-15866.22323361589
 30
0.0
 11
34916.88727653686
 21
-15991.22323361589
 31
0.0
 12
35291.88727653687
 22
-15928.72323361589
 32
0.0
 13
35291.88727653687
 23
-15928.72323361589
 33
0.0
  0
MTEXT
  5
4A5A
330
46BF
100
AcDbEntity
  8
DIM
  6
Continuous
 62
     0
 48
100.0
100
AcDbMText
 10
33941.88965925525
 20
-15647.47323361589
 30
0.0
 40
375.0
 41
0.0
 71
     5
 72
     1
  1
\A1;2700
 73
     1
 44
1.0
  0
POINT
  5
4A5B
330
46BF
100
AcDbEntity
  8
DEFPOINTS
  6
Continuous
 62
     0
 48
100.0
100
AcDbPoint
 10
32591.89204197365
 20
-14813.6035420695
 30
0.0
  0
POINT
  5
4A5C
330
46BF
100
AcDbEntity
  8
DEFPOINTS
  6
Continuous
 62
     0
 48
100.0
100
AcDbPoint
 10
35291.88727653687
 20
-14813.6324156748
 30
0.0
  0
POINT
  5
4A5D
330
46BF
100
AcDbEntity
  8
DEFPOINTS
  6
Continuous
 62
     0
 48
100.0
100
AcDbPoint
 10
35291.88727653687
 20
-15928.72323361589
 30
0.0
  0
ENDBLK
  5
46CA
330
46BF
100
AcDbEntity
  8
0
 48
100.0
100
AcDbBlockEnd
  0
BLOCK
  5
46D8
330
46CE
100
AcDbEntity
  8
0
 48
100.0
100
AcDbBlockBegin
  2
L150X12
 70
     0
 10
0.0
 20
0.0
 30
0.0
  3
L150X12
  1

  0
LINE
  5
46CF
330
46CE
100
AcDbEntity
  8
0
100
AcDbLine
 10
0.0
 20
150.0
 30
0.0
 11
5.0
 21
150.0
 31
0.0
  0
LINE
  5
46D0
330
46CE
100
AcDbEntity
  8
0
100
AcDbLine
 10
0.0
 20
0.0
 30
0.0
 11
150.0
 21
0.0
 31
0.0
  0
LINE
  5
46D1
330
46CE
100
AcDbEntity
  8
0
100
AcDbLine
 10
0.0
 20
0.0
 30
0.0
 11
0.0
 21
150.0
 31
0.0
  0
LINE
  5
46D2
330
46CE
100
AcDbEntity
  8
0
100
AcDbLine
 10
150.0
 20
0.0
 30
0.0
 11
150.0
 21
5.0
 31
0.0
  0
LINE
  5
46D3
330
46CE
100
AcDbEntity
  8
0
100
AcDbLine
 10
26.0
 20
12.0
 30
0.0
 11
143.0
 21
12.0
 31
0.0
  0
LINE
  5
46D4
330
46CE
100
AcDbEntity
  8
0
100
AcDbLine
 10
12.0
 20
26.0
 30
0.0
 11
12.0
 21
143.0
 31
0.0
  0
ARC
  5
46D5
330
46CE
100
AcDbEntity
  8
0
100
AcDbCircle
 10
26.0
 20
26.0
 30
0.0
 40
14.0
100
AcDbArc
 50
180.0
 51
270.0
  0
ARC
  5
46D6
330
46CE
100
AcDbEntity
  8
0
100
AcDbCircle
 10
5.0
 20
143.0
 30
0.0
 40
7.0
100
AcDbArc
 50
0.0
 51
90.0
  0
ARC
  5
46D7
330
46CE
100
AcDbEntity
  8
0
100
AcDbCircle
 10
143.0
 20
5.0
 30
0.0
 40
7.0
100
AcDbArc
 50
0.0
 51
90.0
  0
ENDBLK
  5
46D9
330
46CE
100
AcDbEntity
  8
0
 48
100.0
100
AcDbBlockEnd
  0
BLOCK
  5
49AF
330
49AE
100
AcDbEntity
  8
0
 48
100.0
100
AcDbBlockBegin
  2
*D19
 70
     1
 10
0.0
 20
0.0
 30
0.0
  3
*D19
  1

  0
LINE
  5
4A9F
330
49AE
100
AcDbEntity
  8
DIM
  6
Continuous
 62
     0
 48
100.0
370
    -2
100
AcDbLine
 10
26875.76833050315
 20
-9265.063512920844
 30
0.0
 11
26926.61885066403
 21
-9265.063512920844
 31
0.0
  0
LINE
  5
4AA0
330
49AE
100
AcDbEntity
  8
DIM
  6
Continuous
 62
     0
 48
100.0
370
    -2
100
AcDbLine
 10
26875.76833050315
 20
-6995.063512922198
 30
0.0
 11
26926.61885066403
 21
-6995.063512922198
 31
0.0
  0
LINE
  5
4AA1
330
49AE
100
AcDbEntity
  8
DIM
  6
Continuous
 62
     0
 48
100.0
370
    -2
100
AcDbLine
 10
27114.11885066403
 20
-8890.063512920844
 30
0.0
 11
27114.11885066403
 21
-7370.063512922198
 31
0.0
  0
SOLID
  5
4AA2
330
49AE
100
AcDbEntity
  8
DIM
  6
Continuous
 62
     0
 48
100.0
100
AcDbTrace
 10
27051.61885066403
 20
-8890.063512920844
 30
0.0
 11
27176.61885066403
 21
-8890.063512920844
 31
0.0
 12
27114.11885066403
 22
-9265.063512920844
 32
0.0
 13
27114.11885066403
 23
-9265.063512920844
 33
0.0
  0
SOLID
  5
4AA3
330
49AE
100
AcDbEntity
  8
DIM
  6
Continuous
 62
     0
 48
100.0
100
AcDbTrace
 10
27051.61885066403
 20
-7370.063512922198
 30
0.0
 11
27176.61885066403
 21
-7370.063512922198
 31
0.0
 12
27114.11885066403
 22
-6995.063512922198
 32
0.0
 13
27114.11885066403
 23
-6995.063512922198
 33
0.0
  0
MTEXT
  5
4AA4
330
49AE
100
AcDbEntity
  8
DIM
  6
Continuous
 62
     0
 48
100.0
100
AcDbMText
 10
26832.86885066403
 20
-8130.063512921516
 30
0.0
 40
375.0
 41
0.0
 71
     5
 72
     1
  1
\A1;2270
 11
0.0000000000000001
 21
1.0
 31
0.0
 73
     1
 44
1.0
  0
POINT
  5
4AA5
330
49AE
100
AcDbEntity
  8
DEFPOINTS
  6
Continuous
 62
     0
 48
100.0
100
AcDbPoint
 10
27175.76833050316
 20
-9265.063512920844
 30
0.0
  0
POINT
  5
4AA6
330
49AE
100
AcDbEntity
  8
DEFPOINTS
  6
Continuous
 62
     0
 48
100.0
100
AcDbPoint
 10
27175.76833050316
 20
-6995.063512922198
 30
0.0
  0
POINT
  5
4AA7
330
49AE
100
AcDbEntity
  8
DEFPOINTS
  6
Continuous
 62
     0
 48
100.0
100
AcDbPoint
 10
27114.11885066403
 20
-6995.063512922198
 30
0.0
  0
ENDBLK
  5
49B9
330
49AE
100
AcDbEntity
  8
0
 48
100.0
100
AcDbBlockEnd
  0
ENDSEC
  0
SECTION
  2
ENTITIES
  0
INSERT
  5
3646
330
18
100
AcDbEntity
  8
OBJECT
  6
Continuous
 48
100.0
100
AcDbBlockReference
  2
A$C28EC78B4
 10
38359.88097307434
 20
-26288.72853938977
 30
0.0
 41
0.4480000000000001
 42
0.4480000000000001
 43
0.4480000000000001
  0
LINE
  5
3756
330
18
100
AcDbEntity
  8
OBJECT
  6
CENTER2
 48
0.04
100
AcDbLine
 10
3014.721242288517
 20
-25781.33331546603
 30
0.0
 11
39061.73907657632
 21
-25781.60000467204
 31
0.0
  0
LINE
  5
378B
330
18
100
AcDbEntity
  8
OBJECT
  6
Continuous
 48
100.0
100
AcDbLine
 10
8291.893473380733
 20
-14813.34367917841
 30
0.0
 11
31860.35998487764
 21
-14813.59571910462
 31
0.0
  0
LINE
  5
382C
330
18
100
AcDbEntity
  8
DIM
  6
Continuous
 48
100.0
100
AcDbLine
 10
27794.62760287954
 20
-6695.157142869965
 30
0.0
 11
28140.92902956002
 21
-6695.157142869966
 31
0.0
  0
LINE
  5
382D
330
18
100
AcDbEntity
  8
DIM
  6
Continuous
 48
100.0
100
AcDbLine
 10
27967.77738579313
 20
-6995.063512922198
 30
0.0
 11
27794.62760287954
 21
-6695.157142869965
 31
0.0
  0
LINE
  5
3830
330
18
100
AcDbEntity
  8
DIM
  6
Continuous
 48
100.0
100
AcDbLine
 10
27508.76980376078
 20
-7135.0635129222
 30
0.0
 11
28426.7940888342
 21
-7135.063512922197
 31
0.0
  0
LINE
  5
3831
330
18
100
AcDbEntity
  8
DIM
  6
Continuous
 48
100.0
100
AcDbLine
 10
26441.95920265937
 20
-6995.063512922198
 30
0.0
 11
28566.7957176001
 21
-6995.063512922198
 31
0.0
  0
MTEXT
  5
3832
330
18
100
AcDbEntity
  8
DIM
  6
Continuous
 48
100.0
100
AcDbMText
 10
27006.13526414821
 20
-6664.798270431979
 30
0.0
 40
210.0
 41
1149.93928
 71
     1
 72
     5
  1
LWL
 73
     1
 44
1.0
  0
LINE
  5
3836
330
18
100
AcDbEntity
  8
DIM
  6
Continuous
 48
100.0
100
AcDbLine
 10
27967.77738579313
 20
-6995.063512922198
 30
0.0
 11
28140.92902956002
 21
-6695.157142869966
 31
0.0
  0
MTEXT
  5
3DE2
330
18
100
AcDbEntity
  8
OBJECT
  6
Continuous
 48
100.0
100
AcDbMText
 10
38221.9047526212
 20
-14375.81472193108
 30
0.0
 40
364.0
 41
1419.94419
 71
     1
 72
     5
  1
B.L
 73
     1
 44
1.0
  0
LINE
  5
407D
330
18
100
AcDbEntity
  8
OBJECT
  6
Continuous
 48
0.04
100
AcDbLine
 10
6041.855714380355
 20
-19781.34996385726
 30
0.0
 11
34541.85571369321
 21
-19781.54890480247
 31
0.0
  0
LINE
  5
407E
330
18
100
AcDbEntity
  8
OBJECT
  6
Continuous
 48
0.04
100
AcDbLine
 10
6041.779419594248
 20
-31781.34996361706
 30
0.0
 11
34541.77941890711
 21
-31781.54890456226
 31
0.0
  0
LINE
  5
407F
330
18
100
AcDbEntity
  8
OBJECT
  6
Continuous
 48
0.04
100
AcDbLine
 10
35291.91039858745
 20
-12113.59081276629
 30
0.0
 11
35291.90224866253
 21
-13413.63241575486
 31
0.0
  0
LINE
  5
4080
330
18
100
AcDbEntity
  8
OBJECT
  6
Continuous
 48
0.04
100
AcDbLine
 10
5291.910399748339
 20
-12113.3115973787
 30
0.0
 11
5291.902250102364
 21
-13413.30870636268
 31
0.0
  0
LINE
  5
4081
330
18
100
AcDbEntity
  8
OBJECT
  6
Continuous
 48
0.04
100
AcDbLine
 10
5291.850479107059
 20
-20531.3452621097
 30
0.0
 11
5291.784654897019
 21
-31031.34526190604
 31
0.0
  0
LINE
  5
4082
330
18
100
AcDbEntity
  8
OBJECT
  6
Continuous
 48
0.04
100
AcDbLine
 10
35291.85047839045
 20
-20531.55360651349
 30
0.0
 11
35291.7846541804
 21
-31031.55360630982
 31
0.0
  0
ARC
  5
4083
330
18
100
AcDbEntity
  8
OBJECT
  6
Continuous
 48
0.04
100
AcDbCircle
 10
6041.850479092325
 20
-20531.34996383899
 30
0.0
 40
750.0
100
AcDbArc
 50
89.99960005345499
 51
179.9996408143405
  0
ARC
  5
4084
330
18
100
AcDbEntity
  8
OBJECT
  6
Continuous
 48
0.04
100
AcDbCircle
 10
34541.85047840518
 20
-20531.5489047842
 30
0.0
 40
750.0
100
AcDbArc
 50
359.9996408143405
 51
89.99960005345499
  0
ARC
  5
4085
330
18
100
AcDbEntity
  8
OBJECT
  6
Continuous
 48
0.04
100
AcDbCircle
 10
34541.78465419514
 20
-31031.54890458053
 30
0.0
 40
750.0
100
AcDbArc
 50
269.999600053455
 51
359.9996408143405
  0
ARC
  5
4086
330
18
100
AcDbEntity
  8
OBJECT
  6
Continuous
 48
0.04
100
AcDbCircle
 10
6041.784654882278
 20
-31031.34996363533
 30
0.0
 40
750.0
100
AcDbArc
 50
179.9996408143404
 51
269.999600053455
  0
LINE
  5
4087
330
18
100
AcDbEntity
  8
OBJECT
  6
Continuous
 48
100.0
100
AcDbLine
 10
6041.910399614317
 20
-12113.31857776339
 30
0.0
 11
34541.9103986234
 21
-12113.58383238161
 31
0.0
  0
LINE
  5
40CC
330
18
100
AcDbEntity
  8
OBJECT
  6
Continuous
 48
100.0
100
AcDbLine
 10
5291.902250102364
 20
-13413.30870636268
 30
0.0
 11
8291.893473380733
 21
-14813.3436791784
 31
0.0
  0
LINE
  5
40D0
330
18
100
AcDbEntity
  8
OBJECT
  6
Continuous
 48
100.0
100
AcDbLine
 10
32791.89347219808
 20
-14813.60568087414
 30
0.0
 11
39061.81563692794
 21
-14813.67273108799
 31
0.0
  0
LINE
  5
40D1
330
18
100
AcDbEntity
  8
OBJECT
  6
Continuous
 48
100.0
100
AcDbLine
 10
5564.341863285394
 20
-14813.44484896379
 30
0.0
 11
3014.797802402069
 21
-14813.44014760963
 31
0.0
  0
LINE
  5
40D2
330
18
100
AcDbEntity
  8
OBJECT
  6
Continuous
 48
100.0
100
AcDbLine
 10
14291.94408418929
 20
-9264.988285252217
 30
0.0
 11
20291.94408430719
 21
-9264.988285252217
 31
0.0
  0
LINE
  5
40D5
330
18
100
AcDbEntity
  8
OBJECT
  6
Continuous
 48
100.0
100
AcDbLine
 10
14291.94408418929
 20
-9264.988285252217
 30
0.0
 11
14291.95036653551
 21
-6564.988285259525
 31
0.0
  0
LINE
  5
40D7
330
18
100
AcDbEntity
  8
OBJECT
  6
Continuous
 48
100.0
100
AcDbLine
 10
14291.95036653551
 20
-6564.988285259525
 30
0.0
 11
20291.96101029683
 21
-6565.025899160563
 31
0.0
  0
ARC
  5
40D8
330
18
100
AcDbEntity
  8
OBJECT
  6
Continuous
 48
100.0
100
AcDbCircle
 10
20291.96101029683
 20
-6565.025899160563
 30
0.0
 40
100.0
100
AcDbArc
 50
359.99964081434
 51
179.99964081434
  0
SPLINE
  5
40ED
330
18
100
AcDbEntity
  8
OBJECT
  6
Continuous
 48
100.0
100
AcDbSpline
210
0.0
220
0.0
230
1.0
 70
     8
 71
     3
 72
    11
 73
     7
 74
     5
 42
0.0000000001
 43
0.0000000001
 44
0.0000000001
 40
0.0
 40
0.0
 40
0.0
 40
0.0
 40
1500.490492705881
 40
3000.843946306449
 40
4501.003232814293
 40
6001.025369264581
 40
6001.025369264581
 40
6001.025369264581
 40
6001.025369264581
 10
14291.95036653551
 20
-6564.988285259525
 30
0.0
 10
14791.94288697855
 20
-6551.891135641458
 30
0.0
 10
15791.88226377814
 20
-6525.698032561959
 30
0.0
 10
17291.8554399728
 20
-6492.647511667017
 30
0.0
 10
18791.88772014517
 20
-6469.528988713661
 30
0.0
 10
19791.95223713466
 20
-6466.526883266901
 30
0.0
 10
20291.96163719407
 20
-6465.025899162526
 30
0.0
 11
14291.95036653551
 21
-6564.988285259525
 31
0.0
 11
15791.95320552788
 21
-6526.736465491406
 31
0.0
 11
17291.95601745264
 21
-6494.301146023821
 31
0.0
 11
18791.95877928115
 21
-6472.630903695464
 31
0.0
 11
20291.96163719407
 21
-6465.025899162526
 31
0.0
  0
LINE
  5
40F0
330
18
100
AcDbEntity
  8
OBJECT
  6
Continuous
 48
100.0
100
AcDbLine
 10
14591.94480316972
 20
-8955.988285252214
 30
0.0
 11
14591.94943281824
 21
-6966.277664304421
 31
0.0
  0
LINE
  5
40F1
330
18
100
AcDbEntity
  8
OBJECT
  6
Continuous
 48
100.0
100
AcDbLine
 10
14600.94480316975
 20
-8955.988285252216
 30
0.0
 11
14600.94943336514
 21
-6966.042630655659
 31
0.0
  0
LINE
  5
40F3
330
18
100
AcDbEntity
  8
OBJECT
  6
Continuous
 48
100.0
100
AcDbLine
 10
14291.95013385602
 20
-6614.988285258984
 30
0.0
 11
14281.95025019584
 21
-6614.988238723629
 31
0.0
  0
LINE
  5
40F4
330
18
100
AcDbEntity
  8
OBJECT
  6
Continuous
 48
100.0
100
AcDbLine
 10
14291.94897045857
 20
-6864.988285256277
 30
0.0
 11
14281.94966849711
 21
-6864.988238723629
 31
0.0
  0
LINE
  5
40F5
330
18
100
AcDbEntity
  8
OBJECT
  6
Continuous
 48
100.0
100
AcDbLine
 10
14291.94734170214
 20
-7214.98828525249
 30
0.0
 11
14281.94722536247
 21
-7214.988238716047
 31
0.0
  0
LINE
  5
40F6
330
18
100
AcDbEntity
  8
OBJECT
  6
Continuous
 48
100.0
100
AcDbLine
 10
14291.9461783047
 20
-7464.988285249784
 30
0.0
 11
14281.9454802663
 21
-7464.988238710633
 31
0.0
  0
LINE
  5
40F7
330
18
100
AcDbEntity
  8
OBJECT
  6
Continuous
 48
100.0
100
AcDbLine
 10
14281.94966849711
 20
-6864.988238723629
 30
0.0
 11
14281.95025019584
 21
-6614.988238723629
 31
0.0
  0
LINE
  5
40F8
330
18
100
AcDbEntity
  8
OBJECT
  6
Continuous
 48
100.0
100
AcDbLine
 10
14281.94722536247
 20
-7214.988238716047
 30
0.0
 11
14281.9454802663
 21
-7464.988238710633
 31
0.0
  0
INSERT
  5
4121
330
18
100
AcDbEntity
  8
OBJECT
  6
Continuous
 48
100.0
100
AcDbBlockReference
  2
L100X10
 10
14279.01515200115
 20
-9277.91721744035
 30
0.0
  0
LINE
  5
417F
330
18
100
AcDbEntity
  8
OBJECT
  6
Continuous
 48
100.0
100
AcDbLine
 10
16091.94408418442
 20
-9264.992473483028
 30
0.0
 11
16091.95047207511
 21
-6519.632019027638
 31
0.0
  0
LINE
  5
4183
330
18
100
AcDbEntity
  8
OBJECT
  6
Continuous
 48
100.0
100
AcDbLine
 10
18491.94408417792
 20
-9264.998057790776
 30
0.0
 11
18491.95057417762
 21
-6475.753632847598
 31
0.0
  0
LINE
  5
41AE
330
18
100
AcDbEntity
  8
OBJECT
100
AcDbLine
 10
19166.95019971791
 20
-6595.171592163996
 30
0.0
 11
19166.95019971791
 21
-6593.171592163995
 31
0.0
  0
ARC
  5
41AF
330
18
100
AcDbEntity
  8
OBJECT
100
AcDbCircle
 10
19162.95019971791
 20
-6593.171592163995
 30
0.0
 40
4.0
100
AcDbArc
 50
0.0
 51
90.0
  0
ARC
  5
41B0
330
18
100
AcDbEntity
  8
OBJECT
100
AcDbCircle
 10
19093.9505871675
 20
-6474.171592329658
 30
0.0
 40
4.0
100
AcDbArc
 50
0.0
 51
90.0
  0
ARC
  5
41B1
330
18
100
AcDbEntity
  8
OBJECT
100
AcDbCircle
 10
19106.45019971791
 20
-6580.671592163994
 30
0.0
 40
8.5
100
AcDbArc
 50
180.0
 51
270.0
  0
LINE
  5
41B2
330
18
100
AcDbEntity
  8
OBJECT
100
AcDbLine
 10
19097.95019971791
 20
-6580.671592163994
 30
0.0
 11
19097.95058076183
 21
-6474.171592163995
 31
0.0
  0
LINE
  5
41B3
330
18
100
AcDbEntity
  8
OBJECT
100
AcDbLine
 10
19091.95019971791
 20
-6595.171592163996
 30
0.0
 11
19091.9505871675
 21
-6470.171592329657
 31
0.0
  0
LINE
  5
41B4
330
18
100
AcDbEntity
  8
OBJECT
100
AcDbLine
 10
19091.95019971791
 20
-6595.171592163996
 30
0.0
 11
19166.95019971791
 21
-6595.171592163996
 31
0.0
  0
LINE
  5
41B5
330
18
100
AcDbEntity
  8
OBJECT
100
AcDbLine
 10
19106.45019971791
 20
-6589.171592163996
 30
0.0
 11
19162.95019971791
 21
-6589.171592163996
 31
0.0
  0
LINE
  5
41B6
330
18
100
AcDbEntity
  8
OBJECT
100
AcDbLine
 10
19766.95020715554
 20
-6591.975776171654
 30
0.0
 11
19766.95020715554
 21
-6589.975776171654
 31
0.0
  0
ARC
  5
41B7
330
18
100
AcDbEntity
  8
OBJECT
100
AcDbCircle
 10
19762.95020715554
 20
-6589.975776171654
 30
0.0
 40
4.0
100
AcDbArc
 50
0.0
 51
90.0
  0
ARC
  5
41B8
330
18
100
AcDbEntity
  8
OBJECT
100
AcDbCircle
 10
19693.95059460514
 20
-6470.975776337316
 30
0.0
 40
4.0
100
AcDbArc
 50
0.0
 51
90.0
  0
ARC
  5
41B9
330
18
100
AcDbEntity
  8
OBJECT
100
AcDbCircle
 10
19706.45020715554
 20
-6577.475776171654
 30
0.0
 40
8.5
100
AcDbArc
 50
180.0
 51
270.0
  0
LINE
  5
41BA
330
18
100
AcDbEntity
  8
OBJECT
100
AcDbLine
 10
19697.95020715555
 20
-6577.475776171654
 30
0.0
 11
19697.95058819947
 21
-6470.975776171653
 31
0.0
  0
LINE
  5
41BB
330
18
100
AcDbEntity
  8
OBJECT
100
AcDbLine
 10
19691.95020715554
 20
-6591.975776171654
 30
0.0
 11
19691.95059460514
 21
-6466.975776337317
 31
0.0
  0
LINE
  5
41BC
330
18
100
AcDbEntity
  8
OBJECT
100
AcDbLine
 10
19691.95020715554
 20
-6591.975776171654
 30
0.0
 11
19766.95020715554
 21
-6591.975776171654
 31
0.0
  0
LINE
  5
41BD
330
18
100
AcDbEntity
  8
OBJECT
100
AcDbLine
 10
19706.45020715554
 20
-6585.975776171654
 30
0.0
 11
19762.95020715554
 21
-6585.975776171654
 31
0.0
  0
LINE
  5
41BE
330
18
100
AcDbEntity
  8
OBJECT
  6
Continuous
 48
100.0
100
AcDbLine
 10
25091.94408401605
 20
-9265.051259540989
 30
0.0
 11
25091.97196968391
 21
-6534.147472216563
 31
0.0
  0
LINE
  5
41BF
330
18
100
AcDbEntity
  8
OBJECT
  6
Continuous
 48
100.0
100
AcDbLine
 10
25691.94408398477
 20
-9265.057386230918
 30
0.0
 11
25691.97181391057
 21
-6549.405755790296
 31
0.0
  0
LINE
  5
41C0
330
18
100
AcDbEntity
  8
OBJECT
  6
Continuous
 48
100.0
100
AcDbLine
 10
23291.94408410989
 20
-9265.032879471219
 30
0.0
 11
23291.97237608175
 21
-6494.338862715435
 31
0.0
  0
LINE
  5
41C1
330
18
100
AcDbEntity
  8
OBJECT
  6
Continuous
 48
100.0
100
AcDbLine
 10
23891.94408407861
 20
-9265.03900616114
 30
0.0
 11
23891.97225361625
 21
-6506.335237366551
 31
0.0
  0
LINE
  5
41C2
330
18
100
AcDbEntity
  8
OBJECT
  6
Continuous
 48
100.0
100
AcDbLine
 10
24491.94408404733
 20
-9265.045132851069
 30
0.0
 11
24491.97211733439
 21
-6519.684678531368
 31
0.0
  0
LINE
  5
41C3
330
18
100
AcDbEntity
  8
OBJECT
  6
Continuous
 48
100.0
100
AcDbLine
 10
20891.944084235
 20
-9265.00837271152
 30
0.0
 11
20891.97265477945
 21
-6467.033139865655
 31
0.0
  0
LINE
  5
41C4
330
18
100
AcDbEntity
  8
OBJECT
  6
Continuous
 48
100.0
100
AcDbLine
 10
21491.94408420372
 20
-9265.014499401443
 30
0.0
 11
21491.9726221511
 21
-6470.231567638021
 31
0.0
  0
LINE
  5
41C5
330
18
100
AcDbEntity
  8
OBJECT
  6
Continuous
 48
100.0
100
AcDbLine
 10
22091.94408417245
 20
-9265.020626091368
 30
0.0
 11
22091.9725655653
 21
-6475.776201286051
 31
0.0
  0
LINE
  5
41C6
330
18
100
AcDbEntity
  8
OBJECT
  6
Continuous
 48
100.0
100
AcDbLine
 10
22691.94408414117
 20
-9265.02675278129
 30
0.0
 11
22691.97248177495
 21
-6483.985036144193
 31
0.0
  0
LINE
  5
41C7
330
18
100
AcDbEntity
  8
OBJECT
  6
Continuous
 48
100.0
100
AcDbLine
 10
26291.94408395349
 20
-9265.063512920837
 30
0.0
 11
26291.97165405815
 21
-6565.063513061599
 31
0.0
  0
LINE
  5
41C8
330
18
100
AcDbEntity
  8
OBJECT
  6
Continuous
 48
100.0
100
AcDbLine
 10
26301.9685907129
 20
-6865.06359189032
 30
0.0
 11
26301.97114350037
 21
-6615.063591902679
 31
0.0
  0
LINE
  5
41C9
330
18
100
AcDbEntity
  8
OBJECT
  6
Continuous
 48
100.0
100
AcDbLine
 10
26291.96455813866
 20
-7465.063513033631
 30
0.0
 11
26301.96525617686
 21
-7465.063591882681
 31
0.0
  0
LINE
  5
41CA
330
18
100
AcDbEntity
  8
OBJECT
  6
Continuous
 48
100.0
100
AcDbLine
 10
26301.96664556688
 20
-7215.063591885864
 30
0.0
 11
26301.96525617686
 21
-7465.063591882681
 31
0.0
  0
LINE
  5
41CB
330
18
100
AcDbEntity
  8
OBJECT
  6
Continuous
 48
100.0
100
AcDbLine
 10
26291.96652922741
 20
-7215.063513041397
 30
0.0
 11
26301.96664556688
 21
-7215.063591885864
 31
0.0
  0
LINE
  5
41CC
330
18
100
AcDbEntity
  8
OBJECT
  6
Continuous
 48
100.0
100
AcDbLine
 10
26291.96928875165
 20
-6865.063513052279
 30
0.0
 11
26301.9685907129
 21
-6865.06359189032
 31
0.0
  0
LINE
  5
41CD
330
18
100
AcDbEntity
  8
OBJECT
  6
Continuous
 48
100.0
100
AcDbLine
 10
26291.9712598404
 20
-6615.063513060047
 30
0.0
 11
26301.97114350037
 21
-6615.063591902679
 31
0.0
  0
INSERT
  5
41CE
330
18
100
AcDbEntity
  8
OBJECT
  6
Continuous
 48
100.0
100
AcDbBlockReference
  2
L100X10
 10
26304.87285403837
 20
-9277.992607210196
 30
0.0
 41
-1.0
 50
359.9992816286809
  0
SPLINE
  5
41CF
330
18
100
AcDbEntity
  8
OBJECT
  6
Continuous
 48
100.0
100
AcDbSpline
210
0.0
220
0.0
230
1.0
 70
     8
 71
     3
 72
    11
 73
     7
 74
     5
 42
0.0000000001
 43
0.0000000001
 44
0.0000000001
 40
0.0
 40
0.0
 40
0.0
 40
0.0
 40
1500.490492705879
 40
3000.843946306447
 40
4501.003232814293
 40
6001.025369264581
 40
6001.025369264581
 40
6001.025369264581
 40
6001.025369264581
 10
26291.97165405815
 20
-6565.063513061601
 30
0.0
 10
25791.97929786574
 20
-6551.960094565955
 30
0.0
 10
24792.04024955243
 20
-6525.754454303838
 30
0.0
 10
23292.06748786126
 20
-6492.685126830652
 30
0.0
 10
21792.03549766557
 20
-6469.547796557229
 30
0.0
 10
20791.97101839492
 20
-6466.533152357027
 30
0.0
 10
20291.96163719406
 20
-6465.02589916253
 30
0.0
 11
26291.97165405815
 21
-6565.063513061601
 31
0.0
 11
24791.96929478288
 21
-6526.792886343738
 31
0.0
 11
23291.96688964827
 21
-6494.338759926292
 31
0.0
 11
21791.96439963796
 21
-6472.649710647854
 31
0.0
 11
20291.96163719406
 21
-6465.02589916253
 31
0.0
  0
LINE
  5
41D0
330
18
100
AcDbEntity
  8
OBJECT
  6
Continuous
 48
100.0
100
AcDbLine
 10
14291.94408418929
 20
-8964.988285252216
 30
0.0
 11
20291.94596499891
 21
-8964.988285252216
 31
0.0
  0
LINE
  5
41D2
330
18
100
AcDbEntity
  8
OBJECT
  6
Continuous
 48
100.0
100
AcDbLine
 10
26291.94408395349
 20
-9265.063512920837
 30
0.0
 11
20291.94408430718
 21
-9264.98828525222
 31
0.0
  0
LINE
  5
41D3
330
18
100
AcDbEntity
  8
OBJECT
  6
Continuous
 48
100.0
100
AcDbLine
 10
14291.94408418929
 20
-8955.988285252216
 30
0.0
 11
20291.94596499891
 21
-8955.988285252216
 31
0.0
  0
LINE
  5
41D4
330
18
100
AcDbEntity
  8
OBJECT
100
AcDbLine
 10
14891.94408419091
 20
-9264.988285252217
 30
0.0
 11
14893.94408419092
 21
-9264.988285252217
 31
0.0
  0
ARC
  5
41D5
330
18
100
AcDbEntity
  8
OBJECT
100
AcDbCircle
 10
14893.94408419092
 20
-9260.988285252217
 30
0.0
 40
4.0
100
AcDbArc
 50
270.0
 51
0.0
  0
LINE
  5
41D6
330
18
100
AcDbEntity
  8
OBJECT
100
AcDbLine
 10
14891.94408419091
 20
-9164.988285252217
 30
0.0
 11
14966.94408419091
 21
-9164.988285252217
 31
0.0
  0
LINE
  5
41D7
330
18
100
AcDbEntity
  8
OBJECT
100
AcDbLine
 10
14966.94408419091
 20
-9164.988285252217
 30
0.0
 11
14966.94408419091
 21
-9166.988285252216
 31
0.0
  0
LINE
  5
41D8
330
18
100
AcDbEntity
  8
OBJECT
100
AcDbLine
 10
14906.44408419091
 20
-9170.988285252217
 30
0.0
 11
14962.94408419091
 21
-9170.988285252217
 31
0.0
  0
ARC
  5
41D9
330
18
100
AcDbEntity
  8
OBJECT
100
AcDbCircle
 10
14962.94408419091
 20
-9166.988285252216
 30
0.0
 40
4.0
100
AcDbArc
 50
270.0
 51
0.0
  0
ARC
  5
41DA
330
18
100
AcDbEntity
  8
OBJECT
100
AcDbCircle
 10
14906.44408419091
 20
-9179.488285252217
 30
0.0
 40
8.5
100
AcDbArc
 50
90.00000000000003
 51
180.0
  0
LINE
  5
41DB
330
18
100
AcDbEntity
  8
OBJECT
100
AcDbLine
 10
14897.94408419091
 20
-9179.488285252217
 30
0.0
 11
14897.94407778525
 21
-9260.988285417878
 31
0.0
  0
LINE
  5
41DC
330
18
100
AcDbEntity
  8
OBJECT
100
AcDbLine
 10
14891.94408419091
 20
-9164.988285252217
 30
0.0
 11
14891.94408419091
 21
-9264.988285252217
 31
0.0
  0
ARC
  5
41DE
330
18
100
AcDbEntity
  8
OBJECT
100
AcDbCircle
 10
15506.44408418929
 20
-9179.489681329156
 30
0.0
 40
8.5
100
AcDbArc
 50
90.00000000000003
 51
180.0
  0
ARC
  5
41DF
330
18
100
AcDbEntity
  8
OBJECT
100
AcDbCircle
 10
15562.94408418929
 20
-9166.989681329155
 30
0.0
 40
4.0
100
AcDbArc
 50
270.0
 51
0.0
  0
LINE
  5
41E0
330
18
100
AcDbEntity
  8
OBJECT
100
AcDbLine
 10
15506.44408418929
 20
-9170.989681329157
 30
0.0
 11
15562.94408418929
 21
-9170.989681329157
 31
0.0
  0
LINE
  5
41E1
330
18
100
AcDbEntity
  8
OBJECT
100
AcDbLine
 10
15566.94408418929
 20
-9164.989681329156
 30
0.0
 11
15566.94408418929
 21
-9166.989681329155
 31
0.0
  0
LINE
  5
41E2
330
18
100
AcDbEntity
  8
OBJECT
100
AcDbLine
 10
15491.94408418929
 20
-9164.989681329156
 30
0.0
 11
15566.94408418929
 21
-9164.989681329156
 31
0.0
  0
LINE
  5
41E3
330
18
100
AcDbEntity
  8
OBJECT
100
AcDbLine
 10
15497.94408418929
 20
-9179.489681329156
 30
0.0
 11
15497.94407778362
 21
-9260.989681494818
 31
0.0
  0
LINE
  5
41E4
330
18
100
AcDbEntity
  8
OBJECT
100
AcDbLine
 10
15491.94408418929
 20
-9164.989681329156
 30
0.0
 11
15491.94408418929
 21
-9264.989681329156
 31
0.0
  0
LINE
  5
41E5
330
18
100
AcDbEntity
  8
OBJECT
100
AcDbLine
 10
15491.94408418929
 20
-9264.989681329156
 30
0.0
 11
15493.94408418929
 21
-9264.989681329156
 31
0.0
  0
ARC
  5
41E6
330
18
100
AcDbEntity
  8
OBJECT
100
AcDbCircle
 10
15493.94408418929
 20
-9260.989681329157
 30
0.0
 40
4.0
100
AcDbArc
 50
270.0
 51
0.0
  0
ARC
  5
41F0
330
18
100
AcDbEntity
  8
OBJECT
100
AcDbCircle
 10
16706.44408419903
 20
-9179.486889175278
 30
0.0
 40
8.5
100
AcDbArc
 50
90.00000000000003
 51
180.0
  0
ARC
  5
41F1
330
18
100
AcDbEntity
  8
OBJECT
100
AcDbCircle
 10
16762.94408419903
 20
-9166.986889175278
 30
0.0
 40
4.0
100
AcDbArc
 50
270.0
 51
0.0
  0
LINE
  5
41F2
330
18
100
AcDbEntity
  8
OBJECT
100
AcDbLine
 10
16706.44408419903
 20
-9170.986889175278
 30
0.0
 11
16762.94408419903
 21
-9170.986889175278
 31
0.0
  0
LINE
  5
41F3
330
18
100
AcDbEntity
  8
OBJECT
100
AcDbLine
 10
16766.94408419903
 20
-9164.986889175278
 30
0.0
 11
16766.94408419903
 21
-9166.986889175278
 31
0.0
  0
LINE
  5
41F4
330
18
100
AcDbEntity
  8
OBJECT
100
AcDbLine
 10
16691.94408419903
 20
-9164.986889175278
 30
0.0
 11
16766.94408419903
 21
-9164.986889175278
 31
0.0
  0
LINE
  5
41F5
330
18
100
AcDbEntity
  8
OBJECT
100
AcDbLine
 10
16697.94408419903
 20
-9179.486889175278
 30
0.0
 11
16697.94407779336
 21
-9260.986889340944
 31
0.0
  0
LINE
  5
41F6
330
18
100
AcDbEntity
  8
OBJECT
100
AcDbLine
 10
16691.94408419903
 20
-9164.986889175278
 30
0.0
 11
16691.94408419903
 21
-9264.986889175277
 31
0.0
  0
LINE
  5
41F7
330
18
100
AcDbEntity
  8
OBJECT
100
AcDbLine
 10
16691.94408419903
 20
-9264.986889175277
 30
0.0
 11
16693.94408419903
 21
-9264.986889175277
 31
0.0
  0
ARC
  5
41F8
330
18
100
AcDbEntity
  8
OBJECT
100
AcDbCircle
 10
16693.94408419903
 20
-9260.986889175278
 30
0.0
 40
4.0
100
AcDbArc
 50
270.0
 51
0.0
  0
ARC
  5
41F9
330
18
100
AcDbEntity
  8
OBJECT
100
AcDbCircle
 10
17306.44408420066
 20
-9179.486889175278
 30
0.0
 40
8.5
100
AcDbArc
 50
90.00000000000003
 51
180.0
  0
ARC
  5
41FA
330
18
100
AcDbEntity
  8
OBJECT
100
AcDbCircle
 10
17362.94408420066
 20
-9166.986889175278
 30
0.0
 40
4.0
100
AcDbArc
 50
270.0
 51
0.0
  0
LINE
  5
41FB
330
18
100
AcDbEntity
  8
OBJECT
100
AcDbLine
 10
17306.44408420066
 20
-9170.986889175278
 30
0.0
 11
17362.94408420066
 21
-9170.986889175278
 31
0.0
  0
LINE
  5
41FC
330
18
100
AcDbEntity
  8
OBJECT
100
AcDbLine
 10
17366.94408420066
 20
-9164.986889175278
 30
0.0
 11
17366.94408420066
 21
-9166.986889175278
 31
0.0
  0
LINE
  5
41FD
330
18
100
AcDbEntity
  8
OBJECT
100
AcDbLine
 10
17291.94408420066
 20
-9164.986889175278
 30
0.0
 11
17366.94408420066
 21
-9164.986889175278
 31
0.0
  0
LINE
  5
41FE
330
18
100
AcDbEntity
  8
OBJECT
100
AcDbLine
 10
17297.94408420066
 20
-9179.486889175278
 30
0.0
 11
17297.94407779499
 21
-9260.986889340944
 31
0.0
  0
LINE
  5
41FF
330
18
100
AcDbEntity
  8
OBJECT
100
AcDbLine
 10
17291.94408420066
 20
-9164.986889175278
 30
0.0
 11
17291.94408420066
 21
-9264.986889175277
 31
0.0
  0
LINE
  5
4200
330
18
100
AcDbEntity
  8
OBJECT
100
AcDbLine
 10
17291.94408420066
 20
-9264.986889175277
 30
0.0
 11
17293.94408420066
 21
-9264.986889175277
 31
0.0
  0
ARC
  5
4201
330
18
100
AcDbEntity
  8
OBJECT
100
AcDbCircle
 10
17293.94408420066
 20
-9260.986889175278
 30
0.0
 40
4.0
100
AcDbArc
 50
270.0
 51
0.0
  0
ARC
  5
4202
330
18
100
AcDbEntity
  8
OBJECT
100
AcDbCircle
 10
17906.44408420228
 20
-9179.486889175278
 30
0.0
 40
8.5
100
AcDbArc
 50
90.00000000000003
 51
180.0
  0
ARC
  5
4203
330
18
100
AcDbEntity
  8
OBJECT
100
AcDbCircle
 10
17962.94408420228
 20
-9166.986889175278
 30
0.0
 40
4.0
100
AcDbArc
 50
270.0
 51
0.0
  0
LINE
  5
4204
330
18
100
AcDbEntity
  8
OBJECT
100
AcDbLine
 10
17906.44408420228
 20
-9170.986889175278
 30
0.0
 11
17962.94408420228
 21
-9170.986889175278
 31
0.0
  0
LINE
  5
4205
330
18
100
AcDbEntity
  8
OBJECT
100
AcDbLine
 10
17966.94408420228
 20
-9164.986889175278
 30
0.0
 11
17966.94408420228
 21
-9166.986889175278
 31
0.0
  0
LINE
  5
4206
330
18
100
AcDbEntity
  8
OBJECT
100
AcDbLine
 10
17891.94408420228
 20
-9164.986889175278
 30
0.0
 11
17966.94408420228
 21
-9164.986889175278
 31
0.0
  0
LINE
  5
4207
330
18
100
AcDbEntity
  8
OBJECT
100
AcDbLine
 10
17897.94408420228
 20
-9179.486889175278
 30
0.0
 11
17897.94407779661
 21
-9260.986889340944
 31
0.0
  0
LINE
  5
4208
330
18
100
AcDbEntity
  8
OBJECT
100
AcDbLine
 10
17891.94408420228
 20
-9164.986889175278
 30
0.0
 11
17891.94408420228
 21
-9264.986889175277
 31
0.0
  0
LINE
  5
4209
330
18
100
AcDbEntity
  8
OBJECT
100
AcDbLine
 10
17891.94408420228
 20
-9264.986889175277
 30
0.0
 11
17893.94408420228
 21
-9264.986889175277
 31
0.0
  0
ARC
  5
420A
330
18
100
AcDbEntity
  8
OBJECT
100
AcDbCircle
 10
17893.94408420228
 20
-9260.986889175278
 30
0.0
 40
4.0
100
AcDbArc
 50
270.0
 51
0.0
  0
ARC
  5
4214
330
18
100
AcDbEntity
  8
OBJECT
100
AcDbCircle
 10
19106.44408417955
 20
-9179.498057790778
 30
0.0
 40
8.5
100
AcDbArc
 50
90.00000000000003
 51
180.0
  0
ARC
  5
4215
330
18
100
AcDbEntity
  8
OBJECT
100
AcDbCircle
 10
19162.94408417955
 20
-9166.998057790777
 30
0.0
 40
4.0
100
AcDbArc
 50
270.0
 51
0.0
  0
LINE
  5
4216
330
18
100
AcDbEntity
  8
OBJECT
100
AcDbLine
 10
19106.44408417955
 20
-9170.998057790777
 30
0.0
 11
19162.94408417955
 21
-9170.998057790777
 31
0.0
  0
LINE
  5
4217
330
18
100
AcDbEntity
  8
OBJECT
100
AcDbLine
 10
19166.94408417955
 20
-9164.998057790777
 30
0.0
 11
19166.94408417955
 21
-9166.998057790777
 31
0.0
  0
LINE
  5
4218
330
18
100
AcDbEntity
  8
OBJECT
100
AcDbLine
 10
19091.94408417955
 20
-9164.998057790777
 30
0.0
 11
19166.94408417955
 21
-9164.998057790777
 31
0.0
  0
LINE
  5
4219
330
18
100
AcDbEntity
  8
OBJECT
100
AcDbLine
 10
19097.94408417955
 20
-9179.498057790778
 30
0.0
 11
19097.94407777388
 21
-9260.998057956443
 31
0.0
  0
LINE
  5
421A
330
18
100
AcDbEntity
  8
OBJECT
100
AcDbLine
 10
19091.94408417955
 20
-9164.998057790777
 30
0.0
 11
19091.94408417955
 21
-9264.998057790776
 31
0.0
  0
LINE
  5
421B
330
18
100
AcDbEntity
  8
OBJECT
100
AcDbLine
 10
19091.94408417955
 20
-9264.998057790776
 30
0.0
 11
19093.94408417955
 21
-9264.998057790776
 31
0.0
  0
ARC
  5
421C
330
18
100
AcDbEntity
  8
OBJECT
100
AcDbCircle
 10
19093.94408417955
 20
-9260.998057790777
 30
0.0
 40
4.0
100
AcDbArc
 50
270.0
 51
0.0
  0
ARC
  5
421D
330
18
100
AcDbEntity
  8
OBJECT
100
AcDbCircle
 10
19706.44408420716
 20
-9179.486889175278
 30
0.0
 40
8.5
100
AcDbArc
 50
90.00000000000003
 51
180.0
  0
ARC
  5
421E
330
18
100
AcDbEntity
  8
OBJECT
100
AcDbCircle
 10
19762.94408420716
 20
-9166.986889175278
 30
0.0
 40
4.0
100
AcDbArc
 50
270.0
 51
0.0
  0
LINE
  5
421F
330
18
100
AcDbEntity
  8
OBJECT
100
AcDbLine
 10
19706.44408420716
 20
-9170.986889175278
 30
0.0
 11
19762.94408420716
 21
-9170.986889175278
 31
0.0
  0
LINE
  5
4220
330
18
100
AcDbEntity
  8
OBJECT
100
AcDbLine
 10
19766.94408420716
 20
-9164.986889175278
 30
0.0
 11
19766.94408420716
 21
-9166.986889175278
 31
0.0
  0
LINE
  5
4221
330
18
100
AcDbEntity
  8
OBJECT
100
AcDbLine
 10
19691.94408420716
 20
-9164.986889175278
 30
0.0
 11
19766.94408420716
 21
-9164.986889175278
 31
0.0
  0
LINE
  5
4222
330
18
100
AcDbEntity
  8
OBJECT
100
AcDbLine
 10
19697.94408420716
 20
-9179.486889175278
 30
0.0
 11
19697.9440778015
 21
-9260.986889340944
 31
0.0
  0
LINE
  5
4223
330
18
100
AcDbEntity
  8
OBJECT
100
AcDbLine
 10
19691.94408420716
 20
-9164.986889175278
 30
0.0
 11
19691.94408420716
 21
-9264.986889175277
 31
0.0
  0
LINE
  5
4224
330
18
100
AcDbEntity
  8
OBJECT
100
AcDbLine
 10
19691.94408420716
 20
-9264.986889175277
 30
0.0
 11
19693.94408420716
 21
-9264.986889175277
 31
0.0
  0
ARC
  5
4225
330
18
100
AcDbEntity
  8
OBJECT
100
AcDbCircle
 10
19693.94408420716
 20
-9260.986889175278
 30
0.0
 40
4.0
100
AcDbArc
 50
270.0
 51
0.0
  0
LINE
  5
4226
330
18
100
AcDbEntity
  8
OBJECT
  6
Continuous
 48
100.0
100
AcDbLine
 10
16021.94480317359
 20
-8955.988285252214
 30
0.0
 11
16021.94951635216
 21
-6930.378476972133
 31
0.0
  0
LINE
  5
4228
330
18
100
AcDbEntity
  8
OBJECT
  6
Continuous
 48
100.0
100
AcDbLine
 10
16361.94480317452
 20
-8955.988285252214
 30
0.0
 11
16361.94483807644
 21
-8940.988285252217
 31
0.0
  0
LINE
  5
4229
330
18
100
AcDbEntity
  8
OBJECT
  6
Continuous
 48
100.0
100
AcDbLine
 10
16161.9453848727
 20
-8705.988285252221
 30
0.0
 11
16176.94538487274
 21
-8705.988285252221
 31
0.0
  0
LINE
  5
422C
330
18
100
AcDbEntity
  8
OBJECT
  6
Continuous
 48
100.0
100
AcDbLine
 10
16176.94538487274
 20
-8705.988285252216
 30
0.0
 11
16361.94483807644
 21
-8940.988285252217
 31
0.0
  0
LINE
  5
422D
330
18
100
AcDbEntity
  8
OBJECT
  6
Continuous
 48
100.0
100
AcDbLine
 10
16006.9453848732
 20
-8705.987889697084
 30
0.0
 11
15821.9448380779
 21
-8940.987028782974
 31
0.0
  0
LINE
  5
422E
330
18
100
AcDbEntity
  8
OBJECT
  6
Continuous
 48
100.0
100
AcDbLine
 10
16021.94538487307
 20
-8705.987959500934
 30
0.0
 11
16006.94538487319
 21
-8705.987889697084
 31
0.0
  0
LINE
  5
422F
330
18
100
AcDbEntity
  8
OBJECT
  6
Continuous
 48
100.0
100
AcDbLine
 10
15821.94480317597
 20
-8955.987028782969
 30
0.0
 11
15821.9448380779
 21
-8940.987028782974
 31
0.0
  0
LINE
  5
4230
330
18
100
AcDbEntity
  8
OBJECT
  6
Continuous
 48
100.0
100
AcDbLine
 10
16179.52990676454
 20
-7184.404235997303
 30
0.0
 11
16364.52935996824
 21
-6949.404235997302
 31
0.0
  0
LINE
  5
4231
330
18
100
AcDbEntity
  8
OBJECT
  6
Continuous
 48
100.0
100
AcDbLine
 10
15824.52932506777
 20
-6934.405492466551
 30
0.0
 11
15824.5293599697
 21
-6949.405492466548
 31
0.0
  0
LINE
  5
4232
330
18
100
AcDbEntity
  8
OBJECT
  6
Continuous
 48
100.0
100
AcDbLine
 10
16024.52990676487
 20
-7184.404561748586
 30
0.0
 11
16009.52990676499
 21
-7184.404631552435
 31
0.0
  0
LINE
  5
4233
330
18
100
AcDbEntity
  8
OBJECT
  6
Continuous
 48
100.0
100
AcDbLine
 10
16009.529906765
 20
-7184.404631552435
 30
0.0
 11
15824.5293599697
 21
-6949.405492466548
 31
0.0
  0
LINE
  5
4234
330
18
100
AcDbEntity
  8
OBJECT
  6
Continuous
 48
100.0
100
AcDbLine
 10
16164.5299067645
 20
-7184.404235997298
 30
0.0
 11
16179.52990676454
 21
-7184.404235997298
 31
0.0
  0
LINE
  5
4235
330
18
100
AcDbEntity
  8
OBJECT
  6
Continuous
 48
100.0
100
AcDbLine
 10
16364.24860400882
 20
-6921.860718094904
 30
0.0
 11
16364.52935996824
 21
-6949.404235997302
 31
0.0
  0
LINE
  5
4237
330
18
100
AcDbEntity
  8
OBJECT
  6
Continuous
 48
100.0
100
AcDbLine
 10
18576.94538488899
 20
-8705.984097021406
 30
0.0
 11
18761.94483809269
 21
-8940.984097021406
 31
0.0
  0
LINE
  5
4238
330
18
100
AcDbEntity
  8
OBJECT
  6
Continuous
 48
100.0
100
AcDbLine
 10
18221.94480319222
 20
-8955.982840552158
 30
0.0
 11
18221.94483809415
 21
-8940.982840552162
 31
0.0
  0
LINE
  5
4239
330
18
100
AcDbEntity
  8
OBJECT
  6
Continuous
 48
100.0
100
AcDbLine
 10
18421.94538488933
 20
-8705.983771270119
 30
0.0
 11
18406.94538488944
 21
-8705.983701466273
 31
0.0
  0
LINE
  5
423A
330
18
100
AcDbEntity
  8
OBJECT
  6
Continuous
 48
100.0
100
AcDbLine
 10
18406.94538488945
 20
-8705.983701466271
 30
0.0
 11
18221.94483809415
 21
-8940.982840552162
 31
0.0
  0
LINE
  5
423B
330
18
100
AcDbEntity
  8
OBJECT
  6
Continuous
 48
100.0
100
AcDbLine
 10
18561.94538488894
 20
-8705.984097021406
 30
0.0
 11
18576.94538488899
 21
-8705.984097021406
 31
0.0
  0
LINE
  5
423C
330
18
100
AcDbEntity
  8
OBJECT
  6
Continuous
 48
100.0
100
AcDbLine
 10
18761.94480319077
 20
-8955.984097021403
 30
0.0
 11
18761.94483809269
 21
-8940.984097021406
 31
0.0
  0
LINE
  5
423D
330
18
100
AcDbEntity
  8
OBJECT
  6
Continuous
 48
100.0
100
AcDbLine
 10
18561.94480319022
 20
-8955.984097021403
 30
0.0
 11
18561.94962430228
 21
-6883.987090620296
 31
0.0
  0
LINE
  5
423E
330
18
100
AcDbEntity
  8
OBJECT
  6
Continuous
 48
100.0
100
AcDbLine
 10
18421.94480318984
 20
-8955.984097021403
 30
0.0
 11
18421.94962052118
 21
-6885.611954215685
 31
0.0
  0
LINE
  5
423F
330
18
100
AcDbEntity
  8
OBJECT
  6
Continuous
 48
100.0
100
AcDbLine
 10
18764.2487081312
 20
-6877.114241444225
 30
0.0
 11
18764.52946409062
 21
-6904.657759346625
 31
0.0
  0
LINE
  5
4240
330
18
100
AcDbEntity
  8
OBJECT
  6
Continuous
 48
100.0
100
AcDbLine
 10
18579.53001088692
 20
-7139.657759346625
 30
0.0
 11
18764.52946409061
 21
-6904.657759346625
 31
0.0
  0
LINE
  5
4241
330
18
100
AcDbEntity
  8
OBJECT
  6
Continuous
 48
100.0
100
AcDbLine
 10
18564.53001088688
 20
-7139.65775934662
 30
0.0
 11
18579.53001088692
 21
-7139.657759346625
 31
0.0
  0
LINE
  5
4242
330
18
100
AcDbEntity
  8
OBJECT
  6
Continuous
 48
100.0
100
AcDbLine
 10
18409.53001088738
 20
-7139.658154901757
 30
0.0
 11
18224.52946409208
 21
-6904.65901581587
 31
0.0
  0
LINE
  5
4243
330
18
100
AcDbEntity
  8
OBJECT
  6
Continuous
 48
100.0
100
AcDbLine
 10
18424.53001088726
 20
-7139.658085097908
 30
0.0
 11
18409.53001088737
 21
-7139.658154901754
 31
0.0
  0
LINE
  5
4244
330
18
100
AcDbEntity
  8
OBJECT
  6
Continuous
 48
100.0
100
AcDbLine
 10
18224.52942919015
 20
-6889.659015815869
 30
0.0
 11
18224.52946409208
 21
-6904.65901581587
 31
0.0
  0
LINE
  5
4251
330
18
100
AcDbEntity
  8
OBJECT
  6
Continuous
 48
100.0
100
AcDbLine
 10
26291.96614003721
 20
-7105.063513033448
 30
0.0
 11
26091.96611880642
 21
-7105.061470803256
 31
0.0
  0
LINE
  5
4257
330
18
100
AcDbEntity
  8
OBJECT
  6
Continuous
 48
100.0
100
AcDbLine
 10
25891.96614005495
 20
-7105.059428573499
 30
0.0
 11
25691.96614006849
 21
-7105.057386343521
 31
0.0
  0
LINE
  5
4259
330
18
100
AcDbEntity
  8
OBJECT
  6
Continuous
 48
100.0
100
AcDbLine
 10
26041.96611881062
 20
-7105.060960245762
 30
0.0
 11
25941.9661400539
 21
-7105.059939130992
 31
0.0
  0
LINE
  5
425A
330
18
100
AcDbEntity
  8
OBJECT
  6
Continuous
 48
100.0
100
AcDbLine
 10
26041.96060478968
 20
-7645.060960217612
 30
0.0
 11
25941.96062603297
 21
-7645.059939102837
 31
0.0
  0
LINE
  5
425B
330
18
100
AcDbEntity
  8
OBJECT
  6
Continuous
 48
100.0
100
AcDbLine
 10
25891.96062603402
 20
-7645.059428545348
 30
0.0
 11
25691.96062604756
 21
-7645.057386315369
 31
0.0
  0
LINE
  5
425C
330
18
100
AcDbEntity
  8
OBJECT
  6
Continuous
 48
100.0
100
AcDbLine
 10
26291.96062601628
 20
-7645.063513005299
 30
0.0
 11
26091.96060478548
 21
-7645.061470775101
 31
0.0
  0
LINE
  5
425D
330
18
100
AcDbEntity
  8
OBJECT
  6
Continuous
 48
100.0
100
AcDbLine
 10
26041.95509076876
 20
-8185.060960189462
 30
0.0
 11
25941.95511201204
 21
-8185.059939074687
 31
0.0
  0
LINE
  5
425E
330
18
100
AcDbEntity
  8
OBJECT
  6
Continuous
 48
100.0
100
AcDbLine
 10
25891.95511201309
 20
-8185.059428517197
 30
0.0
 11
25691.95511202663
 21
-8185.057386287219
 31
0.0
  0
LINE
  5
425F
330
18
100
AcDbEntity
  8
OBJECT
  6
Continuous
 48
100.0
100
AcDbLine
 10
26291.95511199535
 20
-8185.063512977148
 30
0.0
 11
26091.95509076455
 21
-8185.06147074695
 31
0.0
  0
LINE
  5
4260
330
18
100
AcDbEntity
  8
OBJECT
  6
Continuous
 48
100.0
100
AcDbLine
 10
26041.94957674783
 20
-8725.060960161306
 30
0.0
 11
25941.94959799111
 21
-8725.059939046536
 31
0.0
  0
LINE
  5
4261
330
18
100
AcDbEntity
  8
OBJECT
  6
Continuous
 48
100.0
100
AcDbLine
 10
25891.94959799216
 20
-8725.059428489043
 30
0.0
 11
25691.9495980057
 21
-8725.057386259068
 31
0.0
  0
LINE
  5
4262
330
18
100
AcDbEntity
  8
OBJECT
  6
Continuous
 48
100.0
100
AcDbLine
 10
26291.94959797442
 20
-8725.063512948993
 30
0.0
 11
26091.94957674362
 21
-8725.061470718799
 31
0.0
  0
LINE
  5
426F
330
18
100
AcDbEntity
  8
OBJECT
  6
Continuous
 48
0.04
100
AcDbLine
 10
20041.95906837163
 20
-6874.792821804283
 30
0.0
 11
20041.94602141474
 21
-8955.988285252216
 31
0.0
  0
LINE
  5
4270
330
18
100
AcDbEntity
  8
OBJECT
  6
Continuous
 48
0.04
100
AcDbLine
 10
19744.5378443452
 20
-6874.091776671169
 30
0.0
 11
19744.53774377918
 21
-6890.133642283942
 31
0.0
  0
LINE
  5
4271
330
18
100
AcDbEntity
  8
OBJECT
  6
Continuous
 48
100.0
100
AcDbLine
 10
20026.94790210617
 20
-8655.988285252217
 30
0.0
 11
20041.94790210645
 21
-8655.988285252217
 31
0.0
  0
SPLINE
  5
4272
330
18
100
AcDbEntity
  8
OBJECT
  6
Continuous
 48
100.0
100
AcDbSpline
210
0.0
220
0.0
230
1.0
 70
     8
 71
     3
 72
     8
 73
     4
 74
     0
 42
0.0000000001
 43
0.0000000001
 40
5734.074631249065
 40
5734.074631249065
 40
5734.074631249065
 40
5734.074631249065
 40
5749.087675042259
 40
5749.087675042259
 40
5749.087675042259
 40
5749.087675042259
 10
20029.53596333798
 20
-7174.142997388141
 30
0.0
 10
20034.53583687326
 20
-7174.127005440985
 30
0.0
 10
20039.53583698126
 20
-7174.111068332525
 30
0.0
 10
20044.53596363803
 20
-7174.095182960268
 30
0.0
  0
LINE
  5
4276
330
18
100
AcDbEntity
  8
OBJECT
  6
Continuous
 48
0.04
100
AcDbLine
 10
19741.94611544343
 20
-8940.98828525222
 30
0.0
 11
19741.94602142063
 21
-8955.986404560499
 31
0.0
  0
LINE
  5
4278
330
18
100
AcDbEntity
  8
OBJECT
  6
Continuous
 48
100.0
100
AcDbLine
 10
19741.94611544343
 20
-8940.988285252217
 30
0.0
 11
20026.94790210616
 21
-8655.988285252217
 31
0.0
  0
LINE
  5
4279
330
18
100
AcDbEntity
  8
OBJECT
  6
Continuous
 48
100.0
100
AcDbLine
 10
19744.53774377918
 20
-6890.133642283945
 30
0.0
 11
20029.53596333798
 21
-7174.142997388142
 31
0.0
  0
ARC
  5
428C
330
18
100
AcDbEntity
  8
OBJECT
100
AcDbCircle
 10
20287.94758376951
 20
-8706.995785804007
 30
0.0
 40
4.0
100
AcDbArc
 50
269.9996815752627
 51
359.9996815752627
  0
LINE
  5
428D
330
18
100
AcDbEntity
  8
OBJECT
100
AcDbLine
 10
20291.94759488456
 20
-8704.995808034276
 30
0.0
 11
20291.94758376945
 21
-8706.995808034248
 31
0.0
  0
LINE
  5
428E
330
18
100
AcDbEntity
  8
OBJECT
100
AcDbLine
 10
20191.94759488611
 20
-8704.995252278273
 30
0.0
 11
20291.94759488456
 21
-8704.995808034276
 31
0.0
  0
LINE
  5
428F
330
18
100
AcDbEntity
  8
OBJECT
100
AcDbLine
 10
20206.44756154053
 20
-8710.995332862804
 30
0.0
 11
20287.94756170497
 21
-8710.995779398283
 31
0.0
  0
LINE
  5
4290
330
18
100
AcDbEntity
  8
OBJECT
100
AcDbLine
 10
20191.94759488611
 20
-8704.995252278273
 30
0.0
 11
20191.9471780691
 21
-8779.995252277116
 31
0.0
  0
LINE
  5
4291
330
18
100
AcDbEntity
  8
OBJECT
100
AcDbLine
 10
20191.9471780691
 20
-8779.995252277116
 30
0.0
 11
20193.94717806907
 21
-8779.995263392237
 31
0.0
  0
LINE
  5
4292
330
18
100
AcDbEntity
  8
OBJECT
100
AcDbLine
 10
20197.94751430139
 20
-8719.495285623413
 30
0.0
 11
20197.94720029925
 21
-8775.995285622535
 31
0.0
  0
ARC
  5
4293
330
18
100
AcDbEntity
  8
OBJECT
100
AcDbCircle
 10
20193.94720029931
 20
-8775.995263392294
 30
0.0
 40
4.0
100
AcDbArc
 50
269.9996815752627
 51
359.9996815752627
  0
ARC
  5
4294
330
18
100
AcDbEntity
  8
OBJECT
100
AcDbCircle
 10
20206.44751430126
 20
-8719.495332862669
 30
0.0
 40
8.5
100
AcDbArc
 50
89.9996815752627
 51
179.9996815752627
  0
ARC
  5
4295
330
18
100
AcDbEntity
  8
OBJECT
100
AcDbCircle
 10
20287.95330193663
 20
-8147.003308608612
 30
0.0
 40
4.0
100
AcDbArc
 50
269.9996815752627
 51
359.9996815752627
  0
LINE
  5
4296
330
18
100
AcDbEntity
  8
OBJECT
100
AcDbLine
 10
20291.95331305168
 20
-8145.00333083888
 30
0.0
 11
20291.95330193656
 21
-8147.003330838852
 31
0.0
  0
LINE
  5
4297
330
18
100
AcDbEntity
  8
OBJECT
100
AcDbLine
 10
20191.95331305323
 20
-8145.002775082877
 30
0.0
 11
20291.95331305168
 21
-8145.00333083888
 31
0.0
  0
LINE
  5
4298
330
18
100
AcDbEntity
  8
OBJECT
100
AcDbLine
 10
20206.45327970764
 20
-8151.002855667409
 30
0.0
 11
20287.95327987209
 21
-8151.003302202887
 31
0.0
  0
LINE
  5
4299
330
18
100
AcDbEntity
  8
OBJECT
100
AcDbLine
 10
20191.95331305323
 20
-8145.002775082877
 30
0.0
 11
20191.95289623622
 21
-8220.002775081722
 31
0.0
  0
LINE
  5
429A
330
18
100
AcDbEntity
  8
OBJECT
100
AcDbLine
 10
20191.95289623622
 20
-8220.002775081722
 30
0.0
 11
20193.95289623619
 21
-8220.002786196841
 31
0.0
  0
LINE
  5
429B
330
18
100
AcDbEntity
  8
OBJECT
100
AcDbLine
 10
20197.95323246851
 20
-8159.502808428017
 30
0.0
 11
20197.95291846637
 21
-8216.002808427139
 31
0.0
  0
ARC
  5
429C
330
18
100
AcDbEntity
  8
OBJECT
100
AcDbCircle
 10
20193.95291846643
 20
-8216.0027861969
 30
0.0
 40
4.0
100
AcDbArc
 50
269.9996815752627
 51
359.9996815752627
  0
ARC
  5
429D
330
18
100
AcDbEntity
  8
OBJECT
100
AcDbCircle
 10
20206.45323246838
 20
-8159.502855667273
 30
0.0
 40
8.5
100
AcDbArc
 50
89.9996815752627
 51
179.9996815752627
  0
ARC
  5
429E
330
18
100
AcDbEntity
  8
OBJECT
100
AcDbCircle
 10
20287.95902010374
 20
-7587.01083141322
 30
0.0
 40
4.0
100
AcDbArc
 50
269.9996815752627
 51
359.9996815752627
  0
LINE
  5
429F
330
18
100
AcDbEntity
  8
OBJECT
100
AcDbLine
 10
20291.9590312188
 20
-7585.010853643488
 30
0.0
 11
20291.95902010369
 21
-7587.010853643457
 31
0.0
  0
LINE
  5
42A0
330
18
100
AcDbEntity
  8
OBJECT
100
AcDbLine
 10
20191.95903122035
 20
-7585.010297887485
 30
0.0
 11
20291.9590312188
 21
-7585.010853643488
 31
0.0
  0
LINE
  5
42A1
330
18
100
AcDbEntity
  8
OBJECT
100
AcDbLine
 10
20206.45899787476
 20
-7591.010378472012
 30
0.0
 11
20287.95899803921
 21
-7591.010825007491
 31
0.0
  0
LINE
  5
42A2
330
18
100
AcDbEntity
  8
OBJECT
100
AcDbLine
 10
20191.95903122035
 20
-7585.010297887485
 30
0.0
 11
20191.95861440334
 21
-7660.010297886329
 31
0.0
  0
LINE
  5
42A3
330
18
100
AcDbEntity
  8
OBJECT
100
AcDbLine
 10
20191.95861440334
 20
-7660.010297886329
 30
0.0
 11
20193.95861440331
 21
-7660.010309001446
 31
0.0
  0
LINE
  5
42A4
330
18
100
AcDbEntity
  8
OBJECT
100
AcDbLine
 10
20197.95895063563
 20
-7599.510331232625
 30
0.0
 11
20197.95863663349
 21
-7656.010331231744
 31
0.0
  0
ARC
  5
42A5
330
18
100
AcDbEntity
  8
OBJECT
100
AcDbCircle
 10
20193.95863663355
 20
-7656.010309001503
 30
0.0
 40
4.0
100
AcDbArc
 50
269.9996815752627
 51
359.9996815752627
  0
ARC
  5
42A6
330
18
100
AcDbEntity
  8
OBJECT
100
AcDbCircle
 10
20206.4589506355
 20
-7599.51037847188
 30
0.0
 40
8.5
100
AcDbArc
 50
89.9996815752627
 51
179.9996815752627
  0
ARC
  5
42A7
330
18
100
AcDbEntity
  8
OBJECT
100
AcDbCircle
 10
20287.96473827087
 20
-7027.01835421782
 30
0.0
 40
4.0
100
AcDbArc
 50
269.9996815752627
 51
359.9996815752627
  0
LINE
  5
42A8
330
18
100
AcDbEntity
  8
OBJECT
100
AcDbLine
 10
20291.96474938592
 20
-7025.018376448089
 30
0.0
 11
20291.9647382708
 21
-7027.018376448061
 31
0.0
  0
LINE
  5
42A9
330
18
100
AcDbEntity
  8
OBJECT
100
AcDbLine
 10
20191.96474938747
 20
-7025.017820692086
 30
0.0
 11
20291.96474938592
 21
-7025.018376448089
 31
0.0
  0
LINE
  5
42AA
330
18
100
AcDbEntity
  8
OBJECT
100
AcDbLine
 10
20206.46471604188
 20
-7031.017901276617
 30
0.0
 11
20287.96471620633
 21
-7031.018347812096
 31
0.0
  0
LINE
  5
42AB
330
18
100
AcDbEntity
  8
OBJECT
100
AcDbLine
 10
20191.96474938747
 20
-7025.017820692086
 30
0.0
 11
20191.96433257046
 21
-7100.017820690929
 31
0.0
  0
LINE
  5
42AC
330
18
100
AcDbEntity
  8
OBJECT
100
AcDbLine
 10
20191.96433257046
 20
-7100.017820690929
 30
0.0
 11
20193.96433257043
 21
-7100.01783180605
 31
0.0
  0
LINE
  5
42AD
330
18
100
AcDbEntity
  8
OBJECT
100
AcDbLine
 10
20197.96466880275
 20
-7039.517854037225
 30
0.0
 11
20197.96435480061
 21
-7096.017854036348
 31
0.0
  0
ARC
  5
42AE
330
18
100
AcDbEntity
  8
OBJECT
100
AcDbCircle
 10
20193.96435480067
 20
-7096.017831806108
 30
0.0
 40
4.0
100
AcDbArc
 50
269.9996815752627
 51
359.9996815752627
  0
ARC
  5
42AF
330
18
100
AcDbEntity
  8
OBJECT
100
AcDbCircle
 10
20206.46466880262
 20
-7039.517901276482
 30
0.0
 40
8.5
100
AcDbArc
 50
89.9996815752627
 51
179.9996815752627
  0
LINE
  5
42B0
330
18
100
AcDbEntity
  8
OBJECT
  6
Continuous
 48
100.0
100
AcDbLine
 10
14803.24851346145
 20
-6960.773963253359
 30
0.0
 11
14803.52926942087
 21
-6988.317481155758
 31
0.0
  0
LINE
  5
42B1
330
18
100
AcDbEntity
  8
OBJECT
  6
Continuous
 48
100.0
100
AcDbLine
 10
14618.52981621718
 20
-7223.317481155759
 30
0.0
 11
14803.52926942087
 21
-6988.317481155758
 31
0.0
  0
LINE
  5
42B2
330
18
100
AcDbEntity
  8
OBJECT
  6
Continuous
 48
100.0
100
AcDbLine
 10
14603.52981621713
 20
-7223.317481155755
 30
0.0
 11
14618.52981621718
 21
-7223.317481155759
 31
0.0
  0
LINE
  5
42B3
330
18
100
AcDbEntity
  8
OBJECT
  6
Continuous
 48
100.0
100
AcDbLine
 10
14615.94538487697
 20
-8705.984653125387
 30
0.0
 11
14800.94483808067
 21
-8940.984653125386
 31
0.0
  0
LINE
  5
42B4
330
18
100
AcDbEntity
  8
OBJECT
  6
Continuous
 48
100.0
100
AcDbLine
 10
14600.94538487692
 20
-8705.984653125389
 30
0.0
 11
14615.94538487697
 21
-8705.984653125387
 31
0.0
  0
LINE
  5
42B5
330
18
100
AcDbEntity
  8
OBJECT
  6
Continuous
 48
100.0
100
AcDbLine
 10
14800.94480317875
 20
-8955.984653125387
 30
0.0
 11
14800.94483808067
 21
-8940.984653125386
 31
0.0
  0
LINE
  5
42B6
330
18
100
AcDbEntity
  8
OBJECT
  6
Continuous
 48
100.0
100
AcDbLine
 10
26291.97165405815
 20
-6565.063513061599
 30
0.0
 11
20291.96101029683
 21
-6565.025899160566
 31
0.0
  0
LINE
  5
42B7
330
18
100
AcDbEntity
  8
OBJECT
  6
Continuous
 48
100.0
100
AcDbLine
 10
6041.910145243615
 20
-12163.31857776319
 30
0.0
 11
34541.91008516785
 21
-12163.58383238085
 31
0.0
  0
LINE
  5
42B8
330
18
100
AcDbEntity
  8
OBJECT
  6
Continuous
 48
100.0
100
AcDbLine
 10
6041.9088733901
 20
-12413.31857776218
 30
0.0
 11
34541.90851792476
 21
-12413.5838323771
 31
0.0
  0
LINE
  5
42B9
330
18
100
AcDbEntity
  8
OBJECT
  6
Continuous
 48
100.0
100
AcDbLine
 10
6041.907092795177
 20
-12763.31857776077
 30
0.0
 11
34541.90632378441
 21
-12763.58383237183
 31
0.0
  0
LINE
  5
42BA
330
18
100
AcDbEntity
  8
OBJECT
  6
Continuous
 48
100.0
100
AcDbLine
 10
6041.905820941662
 20
-13013.31857775976
 30
0.0
 11
34541.90475654132
 21
-13013.58383236808
 31
0.0
  0
LINE
  5
42BB
330
18
100
AcDbEntity
  8
OBJECT
  6
Continuous
 48
100.0
100
AcDbLine
 10
8314.079476448911
 20
-14713.34391642863
 30
0.0
 11
31860.36068291612
 21
-14713.59571910637
 31
0.0
  0
LINE
  5
42BC
330
18
100
AcDbEntity
  8
OBJECT
  6
Continuous
 48
100.0
100
AcDbLine
 10
5291.902941903507
 20
-13302.95550943761
 30
0.0
 11
8314.079476448911
 21
-14713.34391642863
 31
0.0
  0
LINE
  5
42C0
330
18
100
AcDbEntity
  8
FS
  6
CENTER2
 48
0.009
100
AcDbLine
 10
7291.910399744942
 20
-12113.31528537471
 30
0.0
 11
7291.906281443364
 21
-14346.66996686328
 31
0.0
  0
LINE
  5
42C1
330
18
100
AcDbEntity
  8
BHD
  6
DASHED
 48
0.008
100
AcDbLine
 10
9291.910399741544
 20
-12113.31897337072
 30
0.0
 11
9291.905420702141
 21
-14813.45172258355
 31
0.0
  0
LINE
  5
42C2
330
18
100
AcDbEntity
  8
FS
  6
CENTER2
 48
0.009
100
AcDbLine
 10
11291.91039973814
 20
-12113.32266136673
 30
0.0
 11
11291.90542069874
 21
-14813.45541057956
 31
0.0
  0
LINE
  5
42C3
330
18
100
AcDbEntity
  8
FS
  6
CENTER2
 48
0.009
100
AcDbLine
 10
13291.91039973474
 20
-12113.32634936274
 30
0.0
 11
13291.90542069534
 21
-14813.45909857557
 31
0.0
  0
LINE
  5
42C4
330
18
100
AcDbEntity
  8
FS
  6
CENTER2
 48
0.009
100
AcDbLine
 10
15291.91039973134
 20
-12113.33003735875
 30
0.0
 11
15291.90542069194
 21
-14813.46278657158
 31
0.0
  0
LINE
  5
42C5
330
18
100
AcDbEntity
  8
FS
  6
CENTER2
 48
0.009
100
AcDbLine
 10
17291.91039972794
 20
-12113.33372535476
 30
0.0
 11
17291.90542068853
 21
-14813.46647456759
 31
0.0
  0
LINE
  5
42C6
330
18
100
AcDbEntity
  8
BHD
  6
DASHED
 48
0.008
100
AcDbLine
 10
19291.91039972454
 20
-12113.33741335077
 30
0.0
 11
19291.90542068513
 21
-14813.4701625636
 31
0.0
  0
LINE
  5
42C7
330
18
100
AcDbEntity
  8
FS
  6
CENTER2
 48
0.009
100
AcDbLine
 10
21291.91039972114
 20
-12113.34110134678
 30
0.0
 11
21291.90542068173
 21
-14813.47385055961
 31
0.0
  0
LINE
  5
42C8
330
18
100
AcDbEntity
  8
FS
  6
CENTER2
 48
0.009
100
AcDbLine
 10
23291.91039971774
 20
-12113.34478934279
 30
0.0
 11
23291.90542067833
 21
-14813.47753855562
 31
0.0
  0
LINE
  5
42C9
330
18
100
AcDbEntity
  8
FS
  6
CENTER2
 48
0.009
100
AcDbLine
 10
25291.91039971434
 20
-12113.3484773388
 30
0.0
 11
25291.90542067493
 21
-14813.48122655163
 31
0.0
  0
LINE
  5
42CA
330
18
100
AcDbEntity
  8
FS
  6
CENTER2
 48
0.009
100
AcDbLine
 10
27291.91039971094
 20
-12113.35216533481
 30
0.0
 11
27291.90542067153
 21
-14813.48491454764
 31
0.0
  0
LINE
  5
42CB
330
18
100
AcDbEntity
  8
FS
  6
CENTER2
 48
0.009
100
AcDbLine
 10
29291.91039970753
 20
-12113.35585333082
 30
0.0
 11
29291.90542066813
 21
-14813.48860254365
 31
0.0
  0
LINE
  5
42CC
330
18
100
AcDbEntity
  8
BHD
  6
DASHED
 48
0.008
100
AcDbLine
 10
31291.91039970413
 20
-12113.35954132683
 30
0.0
 11
31291.90542066473
 21
-14813.49229053966
 31
0.0
  0
LINE
  5
42CD
330
18
100
AcDbEntity
  8
FS
  6
CENTER2
 48
0.009
100
AcDbLine
 10
33291.91039970074
 20
-12113.36322932284
 30
0.0
 11
33291.90628102491
 21
-14346.92086384777
 31
0.0
  0
LINE
  5
42CE
330
18
100
AcDbEntity
  8
OBJECT
  6
Continuous
 48
100.0
100
AcDbLine
 10
7166.909846519949
 20
-12413.32904834828
 30
0.0
 11
7166.909201120645
 21
-12763.32904835743
 31
0.0
  0
LINE
  5
42CF
330
18
100
AcDbEntity
  8
OBJECT
  6
Continuous
 48
100.0
100
AcDbLine
 10
7416.909846516078
 20
-12413.33137514317
 30
0.0
 11
7416.909201116782
 21
-12763.33137515232
 31
0.0
  0
LINE
  5
42D0
330
18
100
AcDbEntity
  8
OBJECT
  6
Continuous
 48
100.0
100
AcDbLine
 10
9416.90984651268
 20
-12413.33506313917
 30
0.0
 11
9416.909201113384
 21
-12763.33506314833
 31
0.0
  0
LINE
  5
42D1
330
18
100
AcDbEntity
  8
OBJECT
  6
Continuous
 48
100.0
100
AcDbLine
 10
9166.909846516551
 20
-12413.33273634429
 30
0.0
 11
9166.909201117247
 21
-12763.33273635344
 31
0.0
  0
LINE
  5
42D2
330
18
100
AcDbEntity
  8
OBJECT
  6
Continuous
 48
100.0
100
AcDbLine
 10
11416.90984650928
 20
-12413.33875113519
 30
0.0
 11
11416.90920110998
 21
-12763.33875114435
 31
0.0
  0
LINE
  5
42D3
330
18
100
AcDbEntity
  8
OBJECT
  6
Continuous
 48
100.0
100
AcDbLine
 10
11166.90984651315
 20
-12413.33642434029
 30
0.0
 11
11166.90920111385
 21
-12763.33642434944
 31
0.0
  0
LINE
  5
42D4
330
18
100
AcDbEntity
  8
OBJECT
  6
Continuous
 48
100.0
100
AcDbLine
 10
13416.90984639578
 20
-12413.40214458385
 30
0.0
 11
13416.90920099649
 21
-12763.40214459301
 31
0.0
  0
LINE
  5
42D5
330
18
100
AcDbEntity
  8
OBJECT
  6
Continuous
 48
100.0
100
AcDbLine
 10
13166.90984639965
 20
-12413.39981778896
 30
0.0
 11
13166.90920100035
 21
-12763.39981779811
 31
0.0
  0
LINE
  5
42D6
330
18
100
AcDbEntity
  8
OBJECT
  6
Continuous
 48
100.0
100
AcDbLine
 10
15416.90984650248
 20
-12413.3461271272
 30
0.0
 11
15416.90920110318
 21
-12763.34612713637
 31
0.0
  0
LINE
  5
42D7
330
18
100
AcDbEntity
  8
OBJECT
  6
Continuous
 48
100.0
100
AcDbLine
 10
15166.90984650635
 20
-12413.34380033231
 30
0.0
 11
15166.90920110704
 21
-12763.34380034146
 31
0.0
  0
LINE
  5
42D8
330
18
100
AcDbEntity
  8
OBJECT
  6
Continuous
 48
100.0
100
AcDbLine
 10
17416.90984649908
 20
-12413.34981512321
 30
0.0
 11
17416.90920109978
 21
-12763.34981513237
 31
0.0
  0
LINE
  5
42D9
330
18
100
AcDbEntity
  8
OBJECT
  6
Continuous
 48
100.0
100
AcDbLine
 10
17166.90984650295
 20
-12413.34748832833
 30
0.0
 11
17166.90920110365
 21
-12763.34748833747
 31
0.0
  0
LINE
  5
42DA
330
18
100
AcDbEntity
  8
OBJECT
  6
Continuous
 48
100.0
100
AcDbLine
 10
19416.90984649568
 20
-12413.35350311922
 30
0.0
 11
19416.90920109638
 21
-12763.35350312838
 31
0.0
  0
LINE
  5
42DB
330
18
100
AcDbEntity
  8
OBJECT
  6
Continuous
 48
100.0
100
AcDbLine
 10
19166.90984649955
 20
-12413.35117632433
 30
0.0
 11
19166.90920110024
 21
-12763.35117633348
 31
0.0
  0
LINE
  5
42DC
330
18
100
AcDbEntity
  8
OBJECT
  6
Continuous
 48
100.0
100
AcDbLine
 10
21416.90984649228
 20
-12413.35719111523
 30
0.0
 11
21416.90920109298
 21
-12763.35719112439
 31
0.0
  0
LINE
  5
42DD
330
18
100
AcDbEntity
  8
OBJECT
  6
Continuous
 48
100.0
100
AcDbLine
 10
21166.90984649615
 20
-12413.35486432034
 30
0.0
 11
21166.90920109685
 21
-12763.35486432949
 31
0.0
  0
LINE
  5
42DE
330
18
100
AcDbEntity
  8
OBJECT
  6
Continuous
 48
100.0
100
AcDbLine
 10
23416.90984648888
 20
-12413.36087911124
 30
0.0
 11
23416.90920108958
 21
-12763.3608791204
 31
0.0
  0
LINE
  5
42DF
330
18
100
AcDbEntity
  8
OBJECT
  6
Continuous
 48
100.0
100
AcDbLine
 10
23166.90984649274
 20
-12413.35855231636
 30
0.0
 11
23166.90920109344
 21
-12763.3585523255
 31
0.0
  0
LINE
  5
42E0
330
18
100
AcDbEntity
  8
OBJECT
  6
Continuous
 48
100.0
100
AcDbLine
 10
25416.90984648548
 20
-12413.36456710725
 30
0.0
 11
25416.90920108618
 21
-12763.36456711641
 31
0.0
  0
LINE
  5
42E1
330
18
100
AcDbEntity
  8
OBJECT
  6
Continuous
 48
100.0
100
AcDbLine
 10
25166.90984648935
 20
-12413.36224031236
 30
0.0
 11
25166.90920109004
 21
-12763.36224032151
 31
0.0
  0
LINE
  5
42E2
330
18
100
AcDbEntity
  8
OBJECT
  6
Continuous
 48
100.0
100
AcDbLine
 10
27416.90984648208
 20
-12413.36825510326
 30
0.0
 11
27416.90920108277
 21
-12763.36825511242
 31
0.0
  0
LINE
  5
42E3
330
18
100
AcDbEntity
  8
OBJECT
  6
Continuous
 48
100.0
100
AcDbLine
 10
27166.90984648594
 20
-12413.36592830837
 30
0.0
 11
27166.90920108664
 21
-12763.36592831752
 31
0.0
  0
LINE
  5
42E4
330
18
100
AcDbEntity
  8
OBJECT
  6
Continuous
 48
100.0
100
AcDbLine
 10
29416.90984647868
 20
-12413.37194309927
 30
0.0
 11
29416.90920107937
 21
-12763.37194310843
 31
0.0
  0
LINE
  5
42E5
330
18
100
AcDbEntity
  8
OBJECT
  6
Continuous
 48
100.0
100
AcDbLine
 10
29166.90984648255
 20
-12413.36961630438
 30
0.0
 11
29166.90920108324
 21
-12763.36961631353
 31
0.0
  0
LINE
  5
42E6
330
18
100
AcDbEntity
  8
OBJECT
  6
Continuous
 48
100.0
100
AcDbLine
 10
31416.90984647527
 20
-12413.37563109528
 30
0.0
 11
31416.90920107597
 21
-12763.37563110444
 31
0.0
  0
LINE
  5
42E7
330
18
100
AcDbEntity
  8
OBJECT
  6
Continuous
 48
100.0
100
AcDbLine
 10
31166.90984647914
 20
-12413.37330430039
 30
0.0
 11
31166.90920107984
 21
-12763.37330430954
 31
0.0
  0
LINE
  5
42E8
330
18
100
AcDbEntity
  8
OBJECT
  6
Continuous
 48
100.0
100
AcDbLine
 10
33416.90984647187
 20
-12413.37931909129
 30
0.0
 11
33416.90920107257
 21
-12763.37931910045
 31
0.0
  0
LINE
  5
42E9
330
18
100
AcDbEntity
  8
OBJECT
  6
Continuous
 48
100.0
100
AcDbLine
 10
33166.90984647574
 20
-12413.3769922964
 30
0.0
 11
33166.90920107644
 21
-12763.37699230555
 31
0.0
  0
LINE
  5
42EB
330
18
100
AcDbEntity
  8
LONG
  6
HIDDEN2
 48
0.02
100
AcDbLine
 10
5291.821328354752
 20
-25181.35016228051
 30
0.0
 11
35291.82132776524
 21
-25181.53823145208
 31
0.0
  0
LINE
  5
42EC
330
18
100
AcDbEntity
  8
LONG
  6
HIDDEN2
 48
0.02
100
AcDbLine
 10
5291.82508973818
 20
-24581.3501622923
 30
0.0
 11
35291.82508914867
 21
-24581.53823146386
 31
0.0
  0
LINE
  5
42ED
330
18
100
AcDbEntity
  8
LONG
  6
HIDDEN
 48
0.02
100
AcDbLine
 10
5291.828851121609
 20
-23981.35016230409
 30
0.0
 11
35291.8288505321
 21
-23981.53823147565
 31
0.0
  0
LINE
  5
42EE
330
18
100
AcDbEntity
  8
LONG
  6
HIDDEN2
 48
0.02
100
AcDbLine
 10
5291.832612505044
 20
-23381.35016231587
 30
0.0
 11
35291.83261191553
 21
-23381.53823148744
 31
0.0
  0
LINE
  5
42EF
330
18
100
AcDbEntity
  8
LONG
  6
HIDDEN2
 48
0.02
100
AcDbLine
 10
5291.836373888473
 20
-22781.35016232766
 30
0.0
 11
35291.83637329895
 21
-22781.53823149923
 31
0.0
  0
LINE
  5
42F0
330
18
100
AcDbEntity
  8
LONG
  6
HIDDEN2
 48
0.02
100
AcDbLine
 10
5291.840135271908
 20
-22181.35016233945
 30
0.0
 11
35291.84013468238
 21
-22181.53823151102
 31
0.0
  0
LINE
  5
42F1
330
18
100
AcDbEntity
  8
LONG
  6
HIDDEN
 48
0.02
100
AcDbLine
 10
5291.843896655336
 20
-21581.35016235124
 30
0.0
 11
35291.84389606581
 21
-21581.53823152281
 31
0.0
  0
LINE
  5
42F2
330
18
100
AcDbEntity
  8
LONG
  6
HIDDEN2
 48
0.02
100
AcDbLine
 10
5291.847658038765
 20
-20981.35016236304
 30
0.0
 11
35291.84765744924
 21
-20981.5382315346
 31
0.0
  0
LINE
  5
42F3
330
18
100
AcDbEntity
  8
LONG
  6
HIDDEN2
 48
0.02
100
AcDbLine
 10
5291.851419422201
 20
-20381.35016237483
 30
0.0
 11
35291.85141883267
 21
-20381.53823154639
 31
0.0
  0
LINE
  5
42F4
330
18
100
AcDbEntity
  8
LONG
  6
HIDDEN2
 48
0.02
100
AcDbLine
 10
5291.771517017012
 20
-31181.35016207313
 30
0.0
 11
35291.77151592614
 21
-31181.6059951526
 31
0.0
  0
LINE
  5
42F5
330
18
100
AcDbEntity
  8
LONG
  6
HIDDEN2
 48
0.02
100
AcDbLine
 10
5291.776633678601
 20
-30581.35016209496
 30
0.0
 11
35291.77663258773
 21
-30581.60599517443
 31
0.0
  0
LINE
  5
42F6
330
18
100
AcDbEntity
  8
LONG
  6
HIDDEN
 48
0.02
100
AcDbLine
 10
5291.781750340189
 20
-29981.35016211677
 30
0.0
 11
35291.78174924932
 21
-29981.60599519624
 31
0.0
  0
LINE
  5
42F7
330
18
100
AcDbEntity
  8
LONG
  6
HIDDEN2
 48
0.02
100
AcDbLine
 10
5291.786867001778
 20
-29381.35016213858
 30
0.0
 11
35291.78686591091
 21
-29381.60599521805
 31
0.0
  0
LINE
  5
42F8
330
18
100
AcDbEntity
  8
LONG
  6
HIDDEN2
 48
0.02
100
AcDbLine
 10
5291.791983663366
 20
-28781.3501621604
 30
0.0
 11
35291.79198257251
 21
-28781.60599523987
 31
0.0
  0
LINE
  5
42F9
330
18
100
AcDbEntity
  8
LONG
  6
HIDDEN2
 48
0.02
100
AcDbLine
 10
5291.797100324963
 20
-28181.35016218222
 30
0.0
 11
35291.7970992341
 21
-28181.60599526168
 31
0.0
  0
LINE
  5
42FA
330
18
100
AcDbEntity
  8
LONG
  6
HIDDEN
 48
0.02
100
AcDbLine
 10
5291.802216986551
 20
-27581.35016220403
 30
0.0
 11
35291.8022158957
 21
-27581.60599528351
 31
0.0
  0
LINE
  5
42FB
330
18
100
AcDbEntity
  8
LONG
  6
HIDDEN2
 48
0.02
100
AcDbLine
 10
5291.807333648139
 20
-26981.35016222584
 30
0.0
 11
35291.80733255729
 21
-26981.60599530531
 31
0.0
  0
LINE
  5
42FC
330
18
100
AcDbEntity
  8
LONG
  6
HIDDEN2
 48
0.02
100
AcDbLine
 10
5291.812450309728
 20
-26381.35016224766
 30
0.0
 11
35291.81244921888
 21
-26381.60599532713
 31
0.0
  0
MTEXT
  5
42FD
330
18
100
AcDbEntity
  8
FS
  6
Continuous
 48
100.0
100
AcDbMText
 10
4963.987104959247
 20
-25871.37458799434
 30
0.0
 40
250.0
 41
631.9498
 71
     1
 72
     5
  1
0
 73
     1
 44
1.0
  0
LINE
  5
42FE
330
18
100
AcDbEntity
  8
OBJECT
  6
Continuous
 48
100.0
100
AcDbLine
 10
5291.901944865117
 20
-13578.83884357656
 30
0.0
 11
5291.899668255035
 21
-14813.44434658093
 31
0.0
  0
LINE
  5
42FF
330
18
100
AcDbEntity
  8
OBJECT
  6
Continuous
 48
100.0
100
AcDbLine
 10
7291.905976206115
 20
-14512.20010407716
 30
0.0
 11
7291.905420705538
 21
-14813.44803458754
 31
0.0
  0
MTEXT
  5
4302
330
18
100
AcDbEntity
  8
FS
  6
Continuous
 48
100.0
100
AcDbMText
 10
6999.751888959483
 20
-25880.96022147552
 30
0.0
 40
250.0
 41
631.9498
 71
     1
 72
     5
  1
1
 73
     1
 44
1.0
  0
MTEXT
  5
4303
330
18
100
AcDbEntity
  8
FS
  6
Continuous
 48
100.0
100
AcDbMText
 10
8963.992857406349
 20
-25871.38196399697
 30
0.0
 40
250.0
 41
631.9498
 71
     1
 72
     5
  1
2
 73
     1
 44
1.0
  0
MTEXT
  5
4304
330
18
100
AcDbEntity
  8
FS
  6
Continuous
 48
100.0
100
AcDbMText
 10
10963.99285740295
 20
-25871.38565199298
 30
0.0
 40
250.0
 41
631.9498
 71
     1
 72
     5
  1
3
 73
     1
 44
1.0
  0
MTEXT
  5
4305
330
18
100
AcDbEntity
  8
FS
  6
Continuous
 48
100.0
100
AcDbMText
 10
12963.99285739955
 20
-25871.389339989
 30
0.0
 40
250.0
 41
631.9498
 71
     1
 72
     5
  1
4
 73
     1
 44
1.0
  0
MTEXT
  5
4306
330
18
100
AcDbEntity
  8
FS
  6
Continuous
 48
100.0
100
AcDbMText
 10
14963.99285739615
 20
-25871.39302798501
 30
0.0
 40
250.0
 41
631.9498
 71
     1
 72
     5
  1
5
 73
     1
 44
1.0
  0
MTEXT
  5
4307
330
18
100
AcDbEntity
  8
FS
  6
Continuous
 48
100.0
100
AcDbMText
 10
16963.99285739274
 20
-25871.39671598102
 30
0.0
 40
250.0
 41
631.9498
 71
     1
 72
     5
  1
6
 73
     1
 44
1.0
  0
MTEXT
  5
4308
330
18
100
AcDbEntity
  8
FS
  6
Continuous
 48
100.0
100
AcDbMText
 10
18963.99285738934
 20
-25871.40040397702
 30
0.0
 40
250.0
 41
631.9498
 71
     1
 72
     5
  1
7
 73
     1
 44
1.0
  0
MTEXT
  5
4309
330
18
100
AcDbEntity
  8
FS
  6
Continuous
 48
100.0
100
AcDbMText
 10
20963.99285738595
 20
-25871.40409197304
 30
0.0
 40
250.0
 41
631.9498
 71
     1
 72
     5
  1
8
 73
     1
 44
1.0
  0
MTEXT
  5
430A
330
18
100
AcDbEntity
  8
FS
  6
Continuous
 48
100.0
100
AcDbMText
 10
22963.99285738254
 20
-25871.40777996905
 30
0.0
 40
250.0
 41
631.9498
 71
     1
 72
     5
  1
9
 73
     1
 44
1.0
  0
MTEXT
  5
430B
330
18
100
AcDbEntity
  8
FS
  6
Continuous
 48
100.0
100
AcDbMText
 10
24916.31454055345
 20
-25871.42894598724
 30
0.0
 40
250.0
 41
631.9498
 71
     1
 72
     5
  1
10
 73
     1
 44
1.0
  0
MTEXT
  5
430C
330
18
100
AcDbEntity
  8
FS
  6
Continuous
 48
100.0
100
AcDbMText
 10
26916.31454055004
 20
-25871.43263398326
 30
0.0
 40
250.0
 41
631.9498
 71
     1
 72
     5
  1
11
 73
     1
 44
1.0
  0
MTEXT
  5
430D
330
18
100
AcDbEntity
  8
FS
  6
Continuous
 48
100.0
100
AcDbMText
 10
28916.31454054664
 20
-25871.43632197927
 30
0.0
 40
250.0
 41
631.9498
 71
     1
 72
     5
  1
12
 73
     1
 44
1.0
  0
MTEXT
  5
430E
330
18
100
AcDbEntity
  8
FS
  6
Continuous
 48
100.0
100
AcDbMText
 10
30916.31454054324
 20
-25871.44000997528
 30
0.0
 40
250.0
 41
631.9498
 71
     1
 72
     5
  1
13
 73
     1
 44
1.0
  0
LINE
  5
430F
330
18
100
AcDbEntity
  8
FS
  6
Continuous
 48
100.0
100
AcDbLine
 10
33291.88474572666
 20
-14512.36309722609
 30
0.0
 11
33291.88152419733
 21
-14813.61102771976
 31
0.0
  0
LINE
  5
4310
330
18
100
AcDbEntity
  8
OBJECT
  6
Continuous
 48
100.0
100
AcDbLine
 10
35291.90047934239
 20
-13579.02691273894
 30
0.0
 11
35291.88727653687
 21
-14813.6324156748
 31
0.0
  0
MTEXT
  5
4311
330
18
100
AcDbEntity
  8
FS
  6
Continuous
 48
100.0
100
AcDbMText
 10
32916.29064407584
 20
-25871.55874715538
 30
0.0
 40
250.0
 41
631.9498
 71
     1
 72
     5
  1
14
 73
     1
 44
1.0
  0
MTEXT
  5
4312
330
18
100
AcDbEntity
  8
FS
  6
Continuous
 48
100.0
100
AcDbMText
 10
34936.92478514502
 20
-25834.76399696289
 30
0.0
 40
250.0
 41
631.9498
 71
     1
 72
     5
  1
15
 73
     1
 44
1.0
  0
LINE
  5
4314
330
18
100
AcDbEntity
  8
FS
  6
CENTER2
 48
0.009
100
AcDbLine
 10
7292.164666522897
 20
-19781.35869149392
 30
0.0
 11
7292.080901906614
 21
-31781.35869120158
 31
0.0
  0
LINE
  5
4315
330
18
100
AcDbEntity
  8
BHD
  6
DASHED
 48
0.008
100
AcDbLine
 10
9292.164666474171
 20
-19781.3726522633
 30
0.0
 11
9292.080901857888
 21
-31781.37265197095
 31
0.0
  0
LINE
  5
4316
330
18
100
AcDbEntity
  8
FS
  6
CENTER2
 48
0.009
100
AcDbLine
 10
11292.16466642544
 20
-19781.38661303268
 30
0.0
 11
11292.08090180916
 21
-31781.38661274033
 31
0.0
  0
LINE
  5
4317
330
18
100
AcDbEntity
  8
FS
  6
CENTER2
 48
0.009
100
AcDbLine
 10
13292.16466637672
 20
-19781.40057380205
 30
0.0
 11
13292.08090176044
 21
-31781.40057350971
 31
0.0
  0
LINE
  5
4318
330
18
100
AcDbEntity
  8
FS
  6
CENTER2
 48
0.009
100
AcDbLine
 10
15292.164666328
 20
-19781.41453457143
 30
0.0
 11
15292.08090171171
 21
-31781.41453427909
 31
0.0
  0
LINE
  5
4319
330
18
100
AcDbEntity
  8
FS
  6
CENTER2
 48
0.009
100
AcDbLine
 10
17292.16466627927
 20
-19781.42849534081
 30
0.0
 11
17292.08090166299
 21
-31781.42849504847
 31
0.0
  0
LINE
  5
431A
330
18
100
AcDbEntity
  8
BHD
  6
DASHED
 48
0.008
100
AcDbLine
 10
19292.16466623054
 20
-19781.44245611019
 30
0.0
 11
19292.08090161426
 21
-31781.44245581784
 31
0.0
  0
LINE
  5
431B
330
18
100
AcDbEntity
  8
FS
  6
CENTER2
 48
0.009
100
AcDbLine
 10
21292.16466618182
 20
-19781.45641687957
 30
0.0
 11
21292.08090156553
 21
-31781.45641658722
 31
0.0
  0
LINE
  5
431C
330
18
100
AcDbEntity
  8
FS
  6
CENTER2
 48
0.009
100
AcDbLine
 10
23292.16466613309
 20
-19781.47037764895
 30
0.0
 11
23292.08090151681
 21
-31781.4703773566
 31
0.0
  0
LINE
  5
431D
330
18
100
AcDbEntity
  8
FS
  6
CENTER2
 48
0.009
100
AcDbLine
 10
25292.16466608436
 20
-19781.48433841832
 30
0.0
 11
25292.08090146808
 21
-31781.48433812598
 31
0.0
  0
LINE
  5
431E
330
18
100
AcDbEntity
  8
FS
  6
CENTER2
 48
0.009
100
AcDbLine
 10
27292.16466603563
 20
-19781.4982991877
 30
0.0
 11
27292.08090141935
 21
-31781.49829889536
 31
0.0
  0
LINE
  5
431F
330
18
100
AcDbEntity
  8
FS
  6
CENTER2
 48
0.009
100
AcDbLine
 10
29292.16466598691
 20
-19781.51225995708
 30
0.0
 11
29292.08090137063
 21
-31781.51225966474
 31
0.0
  0
LINE
  5
4320
330
18
100
AcDbEntity
  8
BHD
  6
DASHED
 48
0.008
100
AcDbLine
 10
31292.16466593818
 20
-19781.52622072646
 30
0.0
 11
31292.0809013219
 21
-31781.52622043411
 31
0.0
  0
LINE
  5
4321
330
18
100
AcDbEntity
  8
FS
  6
CENTER2
 48
0.009
100
AcDbLine
 10
33292.16466588945
 20
-19781.54018149584
 30
0.0
 11
33292.08090127318
 21
-31781.54018120349
 31
0.0
  0
MTEXT
  5
4322
330
18
100
AcDbEntity
  8
FS
  6
Continuous
 48
100.0
100
AcDbMText
 10
5215.177824170648
 20
-14903.38740433687
 30
0.0
 40
250.0
 41
631.9498
 71
     1
 72
     5
  1
0
 73
     1
 44
1.0
  0
MTEXT
  5
4323
330
18
100
AcDbEntity
  8
FS
  6
Continuous
 48
100.0
100
AcDbMText
 10
7250.942608170884
 20
-14912.97303781805
 30
0.0
 40
250.0
 41
631.9498
 71
     1
 72
     5
  1
1
 73
     1
 44
1.0
  0
MTEXT
  5
4324
330
18
100
AcDbEntity
  8
FS
  6
Continuous
 48
100.0
100
AcDbMText
 10
9215.18357661775
 20
-14903.3947803395
 30
0.0
 40
250.0
 41
631.9498
 71
     1
 72
     5
  1
2
 73
     1
 44
1.0
  0
MTEXT
  5
4325
330
18
100
AcDbEntity
  8
FS
  6
Continuous
 48
100.0
100
AcDbMText
 10
11215.18357661435
 20
-14903.39846833551
 30
0.0
 40
250.0
 41
631.9498
 71
     1
 72
     5
  1
3
 73
     1
 44
1.0
  0
MTEXT
  5
4326
330
18
100
AcDbEntity
  8
FS
  6
Continuous
 48
100.0
100
AcDbMText
 10
13215.18357661095
 20
-14903.40215633153
 30
0.0
 40
250.0
 41
631.9498
 71
     1
 72
     5
  1
4
 73
     1
 44
1.0
  0
MTEXT
  5
4327
330
18
100
AcDbEntity
  8
FS
  6
Continuous
 48
100.0
100
AcDbMText
 10
15215.18357660755
 20
-14903.40584432754
 30
0.0
 40
250.0
 41
631.9498
 71
     1
 72
     5
  1
5
 73
     1
 44
1.0
  0
MTEXT
  5
4328
330
18
100
AcDbEntity
  8
FS
  6
Continuous
 48
100.0
100
AcDbMText
 10
17215.18357660415
 20
-14903.40953232355
 30
0.0
 40
250.0
 41
631.9498
 71
     1
 72
     5
  1
6
 73
     1
 44
1.0
  0
MTEXT
  5
4329
330
18
100
AcDbEntity
  8
FS
  6
Continuous
 48
100.0
100
AcDbMText
 10
19215.18357660074
 20
-14903.41322031954
 30
0.0
 40
250.0
 41
631.9498
 71
     1
 72
     5
  1
7
 73
     1
 44
1.0
  0
MTEXT
  5
432A
330
18
100
AcDbEntity
  8
FS
  6
Continuous
 48
100.0
100
AcDbMText
 10
21215.18357659735
 20
-14903.41690831557
 30
0.0
 40
250.0
 41
631.9498
 71
     1
 72
     5
  1
8
 73
     1
 44
1.0
  0
MTEXT
  5
432B
330
18
100
AcDbEntity
  8
FS
  6
Continuous
 48
100.0
100
AcDbMText
 10
27167.50525976145
 20
-14903.44545032579
 30
0.0
 40
250.0
 41
631.9498
 71
     1
 72
     5
  1
11
 73
     1
 44
1.0
  0
MTEXT
  5
432C
330
18
100
AcDbEntity
  8
FS
  6
Continuous
 48
100.0
100
AcDbMText
 10
23215.18357659394
 20
-14903.42059631158
 30
0.0
 40
250.0
 41
631.9498
 71
     1
 72
     5
  1
9
 73
     1
 44
1.0
  0
MTEXT
  5
432D
330
18
100
AcDbEntity
  8
FS
  6
Continuous
 48
100.0
100
AcDbMText
 10
25167.50525976485
 20
-14903.44176232978
 30
0.0
 40
250.0
 41
631.9498
 71
     1
 72
     5
  1
10
 73
     1
 44
1.0
  0
MTEXT
  5
432E
330
18
100
AcDbEntity
  8
FS
  6
Continuous
 48
100.0
100
AcDbMText
 10
29167.50525975805
 20
-14903.4491383218
 30
0.0
 40
250.0
 41
631.9498
 71
     1
 72
     5
  1
12
 73
     1
 44
1.0
  0
MTEXT
  5
432F
330
18
100
AcDbEntity
  8
FS
  6
Continuous
 48
100.0
100
AcDbMText
 10
31167.50525975464
 20
-14903.45282631781
 30
0.0
 40
250.0
 41
631.9498
 71
     1
 72
     5
  1
13
 73
     1
 44
1.0
  0
MTEXT
  5
4330
330
18
100
AcDbEntity
  8
FS
  6
Continuous
 48
100.0
100
AcDbMText
 10
33167.48136328724
 20
-14903.57156349791
 30
0.0
 40
250.0
 41
631.9498
 71
     1
 72
     5
  1
14
 73
     1
 44
1.0
  0
MTEXT
  5
4331
330
18
100
AcDbEntity
  8
FS
  6
Continuous
 48
100.0
100
AcDbMText
 10
35167.48711562678
 20
-14903.59295145295
 30
0.0
 40
250.0
 41
631.9498
 71
     1
 72
     5
  1
15
 73
     1
 44
1.0
  0
MTEXT
  5
4332
330
18
100
AcDbEntity
  8
BHD
  6
Continuous
 48
100.0
100
AcDbMText
 10
8911.45336229194
 20
-25607.42602875268
 30
0.0
 40
250.0
 41
1600.0
 71
     1
 72
     5
  1
W.T BHD
 11
0.0000023267948964
 21
0.999999999997293
 31
0.0
 73
     1
 44
1.0
  0
LINE
  5
4334
330
18
100
AcDbEntity
  8
OBJECT
  6
Continuous
 48
100.0
100
AcDbLine
 10
14891.95036653388
 20
-6564.989681336462
 30
0.0
 11
14891.95258496913
 21
-5611.560027975887
 31
0.0
  0
LINE
  5
4335
330
18
100
AcDbEntity
  8
OBJECT
  6
Continuous
 48
100.0
100
AcDbLine
 10
14709.45179949552
 20
-5949.137533122233
 30
0.0
 11
15074.45179949552
 21
-5949.137533122233
 31
0.0
  0
LINE
  5
4337
330
18
100
AcDbEntity
  8
OBJECT
  6
Continuous
 48
100.0
100
AcDbLine
 10
14709.45179949552
 20
-5961.137533122233
 30
0.0
 11
15074.45179949552
 21
-5961.137533122233
 31
0.0
  0
LINE
  5
4338
330
18
100
AcDbEntity
  8
OBJECT
  6
Continuous
 48
100.0
100
AcDbLine
 10
14709.45179949552
 20
-5949.137533122233
 30
0.0
 11
14709.45179949552
 21
-5961.137533122233
 31
0.0
  0
LINE
  5
4339
330
18
100
AcDbEntity
  8
OBJECT
  6
Continuous
 48
100.0
100
AcDbLine
 10
15074.45179949552
 20
-5949.137533122233
 30
0.0
 11
15074.45179949552
 21
-5961.137533122233
 31
0.0
  0
LINE
  5
433A
330
18
100
AcDbEntity
  8
OBJECT
  6
Continuous
 48
100.0
100
AcDbLine
 10
14729.45036653432
 20
-6564.989303232295
 30
0.0
 11
14729.45177157354
 21
-5961.137533122233
 31
0.0
  0
LINE
  5
433B
330
18
100
AcDbEntity
  8
OBJECT
  6
Continuous
 48
100.0
100
AcDbLine
 10
15054.45036653344
 20
-6564.990059440636
 30
0.0
 11
15054.45177157442
 21
-5961.137533122233
 31
0.0
  0
LINE
  5
433C
330
18
100
AcDbEntity
  8
OBJECT
  6
Continuous
 48
100.0
100
AcDbLine
 10
6609.416446162562
 20
-11513.31374388389
 30
0.0
 11
6974.416446162563
 21
-11513.31374388389
 31
0.0
  0
LINE
  5
433D
330
18
100
AcDbEntity
  8
OBJECT
  6
Continuous
 48
100.0
100
AcDbLine
 10
6609.416446162562
 20
-11501.31374388388
 30
0.0
 11
6974.416446162563
 21
-11501.31374388388
 31
0.0
  0
LINE
  5
433E
330
18
100
AcDbEntity
  8
OBJECT
  6
Continuous
 48
100.0
100
AcDbLine
 10
6629.41505008519
 20
-12101.31374388389
 30
0.0
 11
6629.416418240587
 21
-11513.31374388389
 31
0.0
  0
LINE
  5
433F
330
18
100
AcDbEntity
  8
OBJECT
  6
Continuous
 48
100.0
100
AcDbLine
 10
6609.416446162562
 20
-11501.31374388388
 30
0.0
 11
6609.416446162562
 21
-11513.31374388389
 31
0.0
  0
LINE
  5
4340
330
18
100
AcDbEntity
  8
OBJECT
  6
CENTER2
 48
100.0
100
AcDbLine
 10
6791.914770323586
 20
-12221.54868310482
 30
0.0
 11
6791.916756376166
 21
-11367.99146568544
 31
0.0
  0
LINE
  5
4341
330
18
100
AcDbEntity
  8
OBJECT
  6
Continuous
 48
100.0
100
AcDbLine
 10
6954.415050086071
 20
-12101.31374388389
 30
0.0
 11
6954.416418241468
 21
-11513.31374388389
 31
0.0
  0
LINE
  5
4342
330
18
100
AcDbEntity
  8
OBJECT
  6
Continuous
 48
100.0
100
AcDbLine
 10
6974.416446162563
 20
-11501.31374388388
 30
0.0
 11
6974.416446162563
 21
-11513.31374388389
 31
0.0
  0
LINE
  5
4344
330
18
100
AcDbEntity
  8
OBJECT
  6
Continuous
 48
100.0
100
AcDbLine
 10
7954.415050042756
 20
-12101.32305106347
 30
0.0
 11
7954.416418198154
 21
-11513.32305106347
 31
0.0
  0
LINE
  5
4345
330
18
100
AcDbEntity
  8
OBJECT
  6
Continuous
 48
100.0
100
AcDbLine
 10
7629.415050041877
 20
-12101.32305106347
 30
0.0
 11
7629.416418197273
 21
-11513.32305106347
 31
0.0
  0
LINE
  5
4346
330
18
100
AcDbEntity
  8
OBJECT
  6
Continuous
 48
100.0
100
AcDbLine
 10
7974.416446119255
 20
-11501.32305106347
 30
0.0
 11
7974.416446119255
 21
-11513.32305106347
 31
0.0
  0
LINE
  5
4347
330
18
100
AcDbEntity
  8
OBJECT
  6
Continuous
 48
100.0
100
AcDbLine
 10
7609.416446119256
 20
-11501.32305106347
 30
0.0
 11
7609.416446119256
 21
-11513.32305106347
 31
0.0
  0
LINE
  5
4348
330
18
100
AcDbEntity
  8
OBJECT
  6
Continuous
 48
100.0
100
AcDbLine
 10
7609.416446119256
 20
-11501.32305106347
 30
0.0
 11
7974.416446119255
 21
-11501.32305106347
 31
0.0
  0
LINE
  5
4349
330
18
100
AcDbEntity
  8
OBJECT
  6
Continuous
 48
100.0
100
AcDbLine
 10
7609.416446119256
 20
-11513.32305106347
 30
0.0
 11
7974.416446119255
 21
-11513.32305106347
 31
0.0
  0
LINE
  5
434A
330
18
100
AcDbEntity
  8
OBJECT
  6
CENTER2
 48
100.0
100
AcDbLine
 10
7791.915050042319
 20
-12101.32305106347
 30
0.0
 11
7791.916756332851
 21
-11368.00077286503
 31
0.0
  0
CIRCLE
  5
434B
330
18
100
AcDbEntity
  8
OBJECT
  6
Continuous
 48
100.0
100
AcDbCircle
 10
6792.16187436469
 20
-20381.3575280929
 30
0.0
 40
182.5
  0
CIRCLE
  5
434C
330
18
100
AcDbEntity
  8
OBJECT
  6
Continuous
 48
100.0
100
AcDbCircle
 10
6792.16187436469
 20
-20381.3575280929
 30
0.0
 40
162.5000000000033
  0
LINE
  5
434D
330
18
100
AcDbEntity
  8
OBJECT
  6
Continuous
 48
100.0
100
AcDbLine
 10
6792.16187436469
 20
-20381.3575280929
 30
0.0
 11
7792.161874337624
 21
-20381.35985488779
 31
0.0
  0
LINE
  5
434E
330
18
100
AcDbEntity
  8
OBJECT
  6
Continuous
 48
100.0
100
AcDbLine
 10
7791.915050042319
 20
-12101.32305106347
 30
0.0
 11
7791.914210756193
 21
-12221.55799027919
 31
0.0
  0
LINE
  5
434F
330
18
100
AcDbEntity
  8
OBJECT
  6
Continuous
 48
100.0
100
AcDbLine
 10
8092.166062603363
 20
-19781.36055293438
 30
0.0
 11
8092.160478292354
 21
-20581.36101828253
 31
0.0
  0
LINE
  5
4350
330
18
100
AcDbEntity
  8
OBJECT
  6
Continuous
 48
100.0
100
AcDbLine
 10
6492.161409006519
 20
-20581.35683005389
 30
0.0
 11
6492.163270442434
 21
-19781.35683005605
 31
0.0
  0
LINE
  5
4351
330
18
100
AcDbEntity
  8
OBJECT
  6
Continuous
 48
100.0
100
AcDbLine
 10
6492.163270442434
 20
-19781.35683005605
 30
0.0
 11
8092.166062603363
 21
-19781.36055293438
 31
0.0
  0
LINE
  5
4352
330
18
100
AcDbEntity
  8
OBJECT
  6
Continuous
 48
100.0
100
AcDbLine
 10
6592.161176326765
 20
-20681.35706273311
 30
0.0
 11
7992.160245615298
 21
-20681.36032024379
 31
0.0
  0
ARC
  5
4353
330
18
100
AcDbEntity
  8
OBJECT
  6
Continuous
 48
100.0
100
AcDbCircle
 10
6592.161409006251
 20
-20581.35706273338
 30
0.0
 40
100.0
100
AcDbArc
 50
179.9998666844728
 51
269.9998666844729
  0
ARC
  5
4354
330
18
100
AcDbEntity
  8
OBJECT
  6
Continuous
 48
100.0
100
AcDbCircle
 10
7992.160478294791
 20
-20581.36032024406
 30
0.0
 40
100.0
100
AcDbArc
 50
269.9998666844729
 51
359.999600053418
  0
LINE
  5
4355
330
18
100
AcDbEntity
  8
OBJECT
  6
Continuous
 48
100.0
100
AcDbLine
 10
6492.163154102694
 20
-19831.35683005592
 30
0.0
 11
8092.165946263616
 21
-19831.36055293424
 31
0.0
  0
CIRCLE
  5
4356
330
18
100
AcDbEntity
  8
OBJECT
  6
Continuous
 48
100.0
100
AcDbCircle
 10
7792.164666527191
 20
-20381.35985489432
 30
0.0
 40
162.5000000000033
  0
CIRCLE
  5
4357
330
18
100
AcDbEntity
  8
OBJECT
  6
Continuous
 48
100.0
100
AcDbCircle
 10
7792.164666527191
 20
-20381.35985489432
 30
0.0
 40
182.5
  0
LINE
  5
4361
330
18
100
AcDbEntity
  8
OBJECT
  6
Continuous
 48
100.0
100
AcDbLine
 10
6491.909003664478
 20
-12113.31342393555
 30
0.0
 11
6491.909031586016
 21
-12101.31342393559
 31
0.0
  0
LINE
  5
4362
330
18
100
AcDbEntity
  8
OBJECT
  6
Continuous
 48
100.0
100
AcDbLine
 10
8091.911823746938
 20
-12101.31714681389
 30
0.0
 11
6491.909031586016
 21
-12101.31342393559
 31
0.0
  0
LINE
  5
4363
330
18
100
AcDbEntity
  8
OBJECT
  6
Continuous
 48
100.0
100
AcDbLine
 10
8091.911795825399
 20
-12113.31714681386
 30
0.0
 11
8091.911823746938
 21
-12101.31714681389
 31
0.0
  0
ELLIPSE
  5
4366
330
18
100
AcDbEntity
  8
OBJECT
  6
Continuous
 48
100.0
100
AcDbEllipse
 10
6492.163212272565
 20
-19806.35683005598
 30
0.0
 11
-68.21743512927206
 21
0.0001587279771722
 31
0.0
210
0.0
220
0.0
230
0.9999999999999998
 40
0.3664752266419262
 41
1.570796326794896
 42
4.712388980384689
  0
ELLIPSE
  5
4367
330
18
100
AcDbEntity
  8
OBJECT
  6
Continuous
 48
100.0
100
AcDbEllipse
 10
8092.166004433487
 20
-19806.3605529343
 30
0.0
 11
68.21743512927206
 21
-0.0001587279821357
 31
0.0
210
0.0
220
0.0
230
-0.9999999999999998
 40
0.3664752266419262
 41
1.570796326794896
 42
4.712388980384689
  0
LINE
  5
436B
330
18
100
AcDbEntity
  8
OBJECT
  6
Continuous
 48
100.0
100
AcDbLine
 10
5491.901664987592
 20
-13506.64437121706
 30
0.0
 11
5691.899668254358
 21
-14813.44508418013
 31
0.0
  0
LINE
  5
436F
330
18
100
AcDbEntity
  8
OBJECT
  6
Continuous
 48
100.0
100
AcDbLine
 10
7766.905420704731
 20
-14813.44891048659
 30
0.0
 11
7916.905743597126
 21
-14638.3445218475
 31
0.0
  0
LINE
  5
4371
330
18
100
AcDbEntity
  8
OBJECT
  6
Continuous
 48
100.0
100
AcDbLine
 10
5691.899668254358
 20
-14813.44508418013
 30
0.0
 11
7766.905420704731
 21
-14813.44891048659
 31
0.0
  0
LINE
  5
4377
330
18
100
AcDbEntity
  8
OBJECT
  6
DASHED
 48
0.008
100
AcDbLine
 10
5491.845463893085
 20
-21331.35164202788
 30
0.0
 11
7916.855069762634
 21
-21581.3666184738
 31
0.0
  0
LINE
  5
4378
330
18
100
AcDbEntity
  8
OBJECT
  6
DASHED
 48
0.008
100
AcDbLine
 10
5491.843896649982
 20
-21581.35164202313
 30
0.0
 11
7916.853502500948
 21
-21831.36958315035
 31
0.0
  0
LINE
  5
4379
330
18
100
AcDbEntity
  8
OBJECT
  6
DASHED
 48
0.008
100
AcDbLine
 10
5491.845463893085
 20
-21331.35164202788
 30
0.0
 11
5491.843896649982
 21
-21581.35164202313
 31
0.0
  0
LINE
  5
437A
330
18
100
AcDbEntity
  8
OBJECT
  6
DASHED
 48
0.008
100
AcDbLine
 10
7916.855069762634
 20
-21581.3666184738
 30
0.0
 11
7916.853502500948
 21
-21831.36958315035
 31
0.0
  0
LINE
  5
437B
330
18
100
AcDbEntity
  8
OBJECT
  6
DASHED
 48
0.008
100
AcDbLine
 10
5491.795427803197
 20
-30231.35093135591
 30
0.0
 11
7916.807844704351
 21
-29981.36322189394
 31
0.0
  0
LINE
  5
437C
330
18
100
AcDbEntity
  8
OBJECT
  6
DASHED
 48
0.008
100
AcDbLine
 10
5491.796671576609
 20
-29981.35093135884
 30
0.0
 11
7916.809088492519
 21
-29731.36025721558
 31
0.0
  0
LINE
  5
437D
330
18
100
AcDbEntity
  8
OBJECT
  6
DASHED
 48
0.008
100
AcDbLine
 10
5491.795427803197
 20
-30231.35093135591
 30
0.0
 11
5491.796671576609
 21
-29981.35093135884
 31
0.0
  0
LINE
  5
437E
330
18
100
AcDbEntity
  8
OBJECT
  6
DASHED
 48
0.008
100
AcDbLine
 10
7916.807844704351
 20
-29981.36322189394
 30
0.0
 11
7916.809088492519
 21
-29731.36025721558
 31
0.0
  0
LINE
  5
4382
330
18
100
AcDbEntity
  8
OBJECT
  6
Continuous
 48
100.0
100
AcDbLine
 10
22091.91182372314
 20
-12101.34296278596
 30
0.0
 11
20491.90903156222
 21
-12101.33923990766
 31
0.0
  0
LINE
  5
4383
330
18
100
AcDbEntity
  8
OBJECT
  6
CENTER2
 48
100.0
100
AcDbLine
 10
20791.91477029979
 20
-12221.57449907689
 30
0.0
 11
20791.91675635236
 21
-11368.01728165751
 31
0.0
  0
LINE
  5
4384
330
18
100
AcDbEntity
  8
OBJECT
  6
Continuous
 48
100.0
100
AcDbLine
 10
20609.41644613876
 20
-11513.33955985596
 30
0.0
 11
20974.41644613876
 21
-11513.33955985596
 31
0.0
  0
LINE
  5
4385
330
18
100
AcDbEntity
  8
OBJECT
  6
Continuous
 48
100.0
100
AcDbLine
 10
20609.41644613876
 20
-11501.33955985596
 30
0.0
 11
20974.41644613876
 21
-11501.33955985596
 31
0.0
  0
LINE
  5
4386
330
18
100
AcDbEntity
  8
OBJECT
  6
Continuous
 48
100.0
100
AcDbLine
 10
20629.41505006139
 20
-12101.33955985596
 30
0.0
 11
20629.41641821679
 21
-11513.33955985596
 31
0.0
  0
LINE
  5
4387
330
18
100
AcDbEntity
  8
OBJECT
  6
Continuous
 48
100.0
100
AcDbLine
 10
20609.41644613876
 20
-11501.33955985596
 30
0.0
 11
20609.41644613876
 21
-11513.33955985596
 31
0.0
  0
LINE
  5
4388
330
18
100
AcDbEntity
  8
OBJECT
  6
Continuous
 48
100.0
100
AcDbLine
 10
20954.41505006227
 20
-12101.33955985596
 30
0.0
 11
20954.41641821767
 21
-11513.33955985596
 31
0.0
  0
LINE
  5
4389
330
18
100
AcDbEntity
  8
OBJECT
  6
Continuous
 48
100.0
100
AcDbLine
 10
20974.41644613876
 20
-11501.33955985596
 30
0.0
 11
20974.41644613876
 21
-11513.33955985596
 31
0.0
  0
LINE
  5
438A
330
18
100
AcDbEntity
  8
OBJECT
  6
Continuous
 48
100.0
100
AcDbLine
 10
20491.90900364068
 20
-12113.33923990762
 30
0.0
 11
20491.90903156222
 21
-12101.33923990766
 31
0.0
  0
LINE
  5
438B
330
18
100
AcDbEntity
  8
OBJECT
  6
Continuous
 48
100.0
100
AcDbLine
 10
21791.91505001852
 20
-12101.34886703555
 30
0.0
 11
21791.91421073239
 21
-12221.58380625127
 31
0.0
  0
LINE
  5
438C
330
18
100
AcDbEntity
  8
OBJECT
  6
Continuous
 48
100.0
100
AcDbLine
 10
21954.41505001896
 20
-12101.34886703555
 30
0.0
 11
21954.41641817435
 21
-11513.34886703554
 31
0.0
  0
LINE
  5
438D
330
18
100
AcDbEntity
  8
OBJECT
  6
Continuous
 48
100.0
100
AcDbLine
 10
21974.41644609545
 20
-11501.34886703554
 30
0.0
 11
21974.41644609545
 21
-11513.34886703554
 31
0.0
  0
LINE
  5
438E
330
18
100
AcDbEntity
  8
OBJECT
  6
Continuous
 48
100.0
100
AcDbLine
 10
22091.9117958016
 20
-12113.34296278593
 30
0.0
 11
22091.91182372314
 21
-12101.34296278596
 31
0.0
  0
LINE
  5
438F
330
18
100
AcDbEntity
  8
OBJECT
  6
CENTER2
 48
100.0
100
AcDbLine
 10
21791.91505001852
 20
-12101.34886703555
 30
0.0
 11
21791.91675630905
 21
-11368.02658883711
 31
0.0
  0
LINE
  5
4390
330
18
100
AcDbEntity
  8
OBJECT
  6
Continuous
 48
100.0
100
AcDbLine
 10
21629.41505001808
 20
-12101.34886703554
 30
0.0
 11
21629.41641817348
 21
-11513.34886703554
 31
0.0
  0
LINE
  5
4391
330
18
100
AcDbEntity
  8
OBJECT
  6
Continuous
 48
100.0
100
AcDbLine
 10
21609.41644609545
 20
-11501.34886703554
 30
0.0
 11
21609.41644609545
 21
-11513.34886703554
 31
0.0
  0
LINE
  5
4392
330
18
100
AcDbEntity
  8
OBJECT
  6
Continuous
 48
100.0
100
AcDbLine
 10
21609.41644609545
 20
-11501.34886703554
 30
0.0
 11
21974.41644609545
 21
-11501.34886703554
 31
0.0
  0
LINE
  5
4393
330
18
100
AcDbEntity
  8
OBJECT
  6
Continuous
 48
100.0
100
AcDbLine
 10
21609.41644609545
 20
-11513.34886703554
 30
0.0
 11
21974.41644609545
 21
-11513.34886703554
 31
0.0
  0
LINE
  5
4394
330
18
100
AcDbEntity
  8
OBJECT
  6
Continuous
 48
100.0
100
AcDbLine
 10
34091.91182370273
 20
-12101.36509076202
 30
0.0
 11
32491.90903154181
 21
-12101.36136788372
 31
0.0
  0
LINE
  5
4395
330
18
100
AcDbEntity
  8
OBJECT
  6
CENTER2
 48
100.0
100
AcDbLine
 10
32791.91477027939
 20
-12221.59662705295
 30
0.0
 11
32791.91675633196
 21
-11368.03940963357
 31
0.0
  0
LINE
  5
4396
330
18
100
AcDbEntity
  8
OBJECT
  6
Continuous
 48
100.0
100
AcDbLine
 10
32491.90900362027
 20
-12113.36136788368
 30
0.0
 11
32491.90903154181
 21
-12101.36136788372
 31
0.0
  0
LINE
  5
4397
330
18
100
AcDbEntity
  8
OBJECT
  6
Continuous
 48
100.0
100
AcDbLine
 10
32974.41644611835
 20
-11501.36168783201
 30
0.0
 11
32974.41644611835
 21
-11513.36168783201
 31
0.0
  0
LINE
  5
4398
330
18
100
AcDbEntity
  8
OBJECT
  6
Continuous
 48
100.0
100
AcDbLine
 10
32954.41505004186
 20
-12101.36168783202
 30
0.0
 11
32954.41641819726
 21
-11513.36168783201
 31
0.0
  0
LINE
  5
4399
330
18
100
AcDbEntity
  8
OBJECT
  6
Continuous
 48
100.0
100
AcDbLine
 10
32609.41644611836
 20
-11501.36168783201
 30
0.0
 11
32609.41644611836
 21
-11513.36168783201
 31
0.0
  0
LINE
  5
439A
330
18
100
AcDbEntity
  8
OBJECT
  6
Continuous
 48
100.0
100
AcDbLine
 10
32629.41505004098
 20
-12101.36168783201
 30
0.0
 11
32629.41641819638
 21
-11513.36168783201
 31
0.0
  0
LINE
  5
439B
330
18
100
AcDbEntity
  8
OBJECT
  6
Continuous
 48
100.0
100
AcDbLine
 10
32609.41644611836
 20
-11501.36168783201
 30
0.0
 11
32974.41644611835
 21
-11501.36168783201
 31
0.0
  0
LINE
  5
439C
330
18
100
AcDbEntity
  8
OBJECT
  6
Continuous
 48
100.0
100
AcDbLine
 10
32609.41644611836
 20
-11513.36168783201
 30
0.0
 11
32974.41644611835
 21
-11513.36168783201
 31
0.0
  0
LINE
  5
439D
330
18
100
AcDbEntity
  8
OBJECT
  6
Continuous
 48
100.0
100
AcDbLine
 10
33791.91504999811
 20
-12101.3709950116
 30
0.0
 11
33791.91421071198
 21
-12221.60593422732
 31
0.0
  0
LINE
  5
439E
330
18
100
AcDbEntity
  8
OBJECT
  6
Continuous
 48
100.0
100
AcDbLine
 10
33609.41644607505
 20
-11513.3709950116
 30
0.0
 11
33974.41644607505
 21
-11513.3709950116
 31
0.0
  0
LINE
  5
439F
330
18
100
AcDbEntity
  8
OBJECT
  6
Continuous
 48
100.0
100
AcDbLine
 10
33609.41644607505
 20
-11501.3709950116
 30
0.0
 11
33974.41644607505
 21
-11501.3709950116
 31
0.0
  0
LINE
  5
43A0
330
18
100
AcDbEntity
  8
OBJECT
  6
Continuous
 48
100.0
100
AcDbLine
 10
33609.41644607505
 20
-11501.3709950116
 30
0.0
 11
33609.41644607505
 21
-11513.3709950116
 31
0.0
  0
LINE
  5
43A1
330
18
100
AcDbEntity
  8
OBJECT
  6
Continuous
 48
100.0
100
AcDbLine
 10
33629.41504999767
 20
-12101.3709950116
 30
0.0
 11
33629.41641815307
 21
-11513.3709950116
 31
0.0
  0
LINE
  5
43A2
330
18
100
AcDbEntity
  8
OBJECT
  6
CENTER2
 48
100.0
100
AcDbLine
 10
33791.91504999811
 20
-12101.3709950116
 30
0.0
 11
33791.91675628864
 21
-11368.04871681316
 31
0.0
  0
LINE
  5
43A3
330
18
100
AcDbEntity
  8
OBJECT
  6
Continuous
 48
100.0
100
AcDbLine
 10
34091.9117957812
 20
-12113.36509076199
 30
0.0
 11
34091.91182370273
 21
-12101.36509076202
 31
0.0
  0
LINE
  5
43A4
330
18
100
AcDbEntity
  8
OBJECT
  6
Continuous
 48
100.0
100
AcDbLine
 10
33974.41644607505
 20
-11501.3709950116
 30
0.0
 11
33974.41644607505
 21
-11513.3709950116
 31
0.0
  0
LINE
  5
43A5
330
18
100
AcDbEntity
  8
OBJECT
  6
Continuous
 48
100.0
100
AcDbLine
 10
33954.41504999856
 20
-12101.3709950116
 30
0.0
 11
33954.41641815395
 21
-11513.3709950116
 31
0.0
  0
LINE
  5
43A6
330
18
100
AcDbEntity
  8
OBJECT
  6
Continuous
 48
100.0
100
AcDbLine
 10
5291.911330466297
 20
-12013.31159738303
 30
0.0
 11
6629.415254819171
 21
-12013.32404577226
 31
0.0
  0
LINE
  5
43A7
330
18
100
AcDbEntity
  8
OBJECT
  6
Continuous
 48
100.0
100
AcDbLine
 10
32954.41525435203
 20
-12013.55413091171
 30
0.0
 11
33629.4152543149
 21
-12013.56041325793
 31
0.0
  0
LINE
  5
43A9
330
18
100
AcDbEntity
  8
OBJECT
  6
Continuous
 48
100.0
100
AcDbLine
 10
35291.9113293054
 20
-12013.59081277063
 30
0.0
 11
35291.91039858745
 21
-12113.59081276629
 31
0.0
  0
SPLINE
  5
43B1
330
18
100
AcDbEntity
  8
OBJECT
  6
Continuous
 48
100.0
100
AcDbSpline
210
0.0
220
0.0
230
1.0
 70
     8
 71
     3
 72
    10
 73
     6
 74
     4
 42
0.0000000001
 43
0.0000000001
 44
0.0000000001
 40
0.0
 40
0.0
 40
0.0
 40
0.0
 40
310.6218069614187
 40
583.4114140478825
 40
762.3106372633746
 40
762.3106372633746
 40
762.3106372633746
 40
762.3106372633746
 10
34541.91039860219
 20
-12113.586111037
 30
0.0
 10
34645.15737580134
 20
-12111.6683112337
 30
0.0
 10
34839.07635899562
 20
-12108.06629015845
 30
0.0
 10
35096.03668820882
 20
-12092.69589511159
 30
0.0
 10
35236.34126110585
 20
-12036.0330993066
 30
0.0
 10
35291.9113293054
 20
-12013.59081277063
 30
0.0
 11
34541.91039860219
 21
-12113.586111037
 31
0.0
 11
34852.42743840154
 21
-12105.51920616426
 31
0.0
 11
35123.32636468978
 21
-12073.4576798396
 31
0.0
 11
35291.9113293054
 21
-12013.59081277063
 31
0.0
  0
SPLINE
  5
43B2
330
18
100
AcDbEntity
  8
OBJECT
  6
Continuous
 48
100.0
100
AcDbSpline
210
0.0
220
0.0
230
1.0
 70
     8
 71
     3
 72
    10
 73
     6
 74
     4
 42
0.0000000001
 43
0.0000000001
 44
0.0000000001
 40
0.0
 40
0.0
 40
0.0
 40
0.0
 40
310.6218069614187
 40
583.4114140478825
 40
762.3106372633746
 40
762.3106372633746
 40
762.3106372633746
 40
762.3106372633746
 10
34541.91008516785
 20
-12163.58383238085
 30
0.0
 10
34645.15706236701
 20
-12161.66603257755
 30
0.0
 10
34839.07604556128
 20
-12158.0640115023
 30
0.0
 10
35096.03637477449
 20
-12142.69361645544
 30
0.0
 10
35236.34094767151
 20
-12086.03082065044
 30
0.0
 10
35291.91101587107
 20
-12063.58853411448
 30
0.0
 11
34541.91008516785
 21
-12163.58383238085
 31
0.0
 11
34852.4271249672
 21
-12155.51692750811
 31
0.0
 11
35123.32605125544
 21
-12123.45540118345
 31
0.0
 11
35291.91101587107
 21
-12063.58853411448
 31
0.0
  0
SPLINE
  5
43B3
330
18
100
AcDbEntity
  8
OBJECT
  6
Continuous
 48
100.0
100
AcDbSpline
210
0.0
220
0.0
230
1.0
 70
     8
 71
     3
 72
    10
 73
     6
 74
     4
 42
0.0000000001
 43
0.0000000001
 44
0.0000000001
 40
0.0
 40
0.0
 40
0.0
 40
0.0
 40
310.6218069614187
 40
583.4114140478825
 40
762.3106372633746
 40
762.3106372633746
 40
762.3106372633746
 40
762.3106372633746
 10
34541.90851792475
 20
-12413.5838323771
 30
0.0
 10
34645.15549512391
 20
-12411.6660325738
 30
0.0
 10
34839.07447831818
 20
-12408.06401149855
 30
0.0
 10
35096.03480753138
 20
-12392.69361645168
 30
0.0
 10
35236.33938042841
 20
-12336.03082064669
 30
0.0
 10
35291.90944862797
 20
-12313.58853411072
 30
0.0
 11
34541.90851792475
 21
-12413.5838323771
 31
0.0
 11
34852.4255577241
 21
-12405.51692750435
 31
0.0
 11
35123.32448401234
 21
-12373.4554011797
 31
0.0
 11
35291.90944862797
 21
-12313.58853411072
 31
0.0
  0
SPLINE
  5
43B4
330
18
100
AcDbEntity
  8
OBJECT
  6
Continuous
 48
100.0
100
AcDbSpline
210
0.0
220
0.0
230
1.0
 70
     8
 71
     3
 72
    10
 73
     6
 74
     4
 42
0.0000000001
 43
0.0000000001
 44
0.0000000001
 40
0.0
 40
0.0
 40
0.0
 40
0.0
 40
310.6218069614187
 40
583.4114140478825
 40
762.3106372633746
 40
762.3106372633746
 40
762.3106372633746
 40
762.3106372633746
 10
34541.9052604119
 20
-12763.58383236194
 30
0.0
 10
34645.15223761105
 20
-12761.66603255864
 30
0.0
 10
34839.07122080533
 20
-12758.06401148339
 30
0.0
 10
35096.03155001852
 20
-12742.69361643652
 30
0.0
 10
35236.33612291556
 20
-12686.03082063153
 30
0.0
 10
35291.90619111512
 20
-12663.58853409556
 30
0.0
 11
34541.9052604119
 21
-12763.58383236194
 31
0.0
 11
34852.42230021125
 21
-12755.51692748919
 31
0.0
 11
35123.32122649949
 21
-12723.45540116454
 31
0.0
 11
35291.90619111512
 21
-12663.58853409556
 31
0.0
  0
SPLINE
  5
43B5
330
18
100
AcDbEntity
  8
OBJECT
  6
Continuous
 48
100.0
100
AcDbSpline
210
0.0
220
0.0
230
1.0
 70
     8
 71
     3
 72
    10
 73
     6
 74
     4
 42
0.0000000001
 43
0.0000000001
 44
0.0000000001
 40
0.0
 40
0.0
 40
0.0
 40
0.0
 40
310.6218069614187
 40
583.4114140478825
 40
762.3106372633746
 40
762.3106372633746
 40
762.3106372633746
 40
762.3106372633746
 10
34541.90369331349
 20
-13013.56075219873
 30
0.0
 10
34645.15067051264
 20
-13011.64295239543
 30
0.0
 10
34839.06965370692
 20
-13008.04093132018
 30
0.0
 10
35096.02998292011
 20
-12992.67053627331
 30
0.0
 10
35236.33455581714
 20
-12936.00774046832
 30
0.0
 10
35291.9046240167
 20
-12913.56545393235
 30
0.0
 11
34541.90369331349
 21
-13013.56075219873
 31
0.0
 11
34852.42073311284
 21
-13005.49384732598
 31
0.0
 11
35123.31965940107
 21
-12973.43232100133
 31
0.0
 11
35291.9046240167
 21
-12913.56545393235
 31
0.0
  0
SPLINE
  5
43B6
330
18
100
AcDbEntity
  8
OBJECT
  6
Continuous
 48
100.0
100
AcDbSpline
210
0.0
220
0.0
230
1.0
 70
     8
 71
     3
 72
    10
 73
     6
 74
     4
 42
0.0000000001
 43
0.0000000001
 44
0.0000000001
 40
0.0
 40
0.0
 40
0.0
 40
0.0
 40
310.6218069614194
 40
583.4114140478756
 40
762.310637263373
 40
762.310637263373
 40
762.310637263373
 40
762.310637263373
 10
6041.905820618565
 20
-13013.38208649909
 30
0.0
 10
5938.658867472794
 20
-13011.46299219104
 30
0.0
 10
5744.739929455697
 20
-13007.85853977057
 30
0.0
 10
5487.779792975867
 20
-12992.48492297051
 30
0.0
 10
5347.475930524874
 20
-12935.82036803898
 30
0.0
 10
5291.906143709828
 20
-12913.37738477033
 30
0.0
 11
6041.905820618565
 21
-13013.38208649909
 31
0.0
 11
5731.388881986029
 21
-13005.31128838148
 31
0.0
 11
5460.490357704737
 21
-12973.24636554357
 31
0.0
 11
5291.906143709828
 21
-12913.37738477033
 31
0.0
  0
SPLINE
  5
43B7
330
18
100
AcDbEntity
  8
OBJECT
  6
Continuous
 48
100.0
100
AcDbSpline
210
0.0
220
0.0
230
1.0
 70
     8
 71
     3
 72
    10
 73
     6
 74
     4
 42
0.0000000001
 43
0.0000000001
 44
0.0000000001
 40
0.0
 40
0.0
 40
0.0
 40
0.0
 40
310.6218069614267
 40
583.4114140478829
 40
762.3106372633803
 40
762.3106372633803
 40
762.3106372633803
 40
762.3106372633803
 10
6041.907387716972
 20
-12763.4051666623
 30
0.0
 10
5938.660434571197
 20
-12761.48607235425
 30
0.0
 10
5744.741496554098
 20
-12757.88161993378
 30
0.0
 10
5487.781360074265
 20
-12742.50800313371
 30
0.0
 10
5347.477497623272
 20
-12685.84344820218
 30
0.0
 10
5291.907710808228
 20
-12663.40046493353
 30
0.0
 11
6041.907387716972
 21
-12763.4051666623
 31
0.0
 11
5731.390449084429
 21
-12755.33436854469
 31
0.0
 11
5460.491924803136
 21
-12723.26944570678
 31
0.0
 11
5291.907710808228
 21
-12663.40046493353
 31
0.0
  0
SPLINE
  5
43B8
330
18
100
AcDbEntity
  8
OBJECT
  6
Continuous
 48
100.0
100
AcDbSpline
210
0.0
220
0.0
230
1.0
 70
     8
 71
     3
 72
    10
 73
     6
 74
     4
 42
0.0000000001
 43
0.0000000001
 44
0.0000000001
 40
0.0
 40
0.0
 40
0.0
 40
0.0
 40
310.6218069614194
 40
583.4114140478756
 40
762.310637263373
 40
762.310637263373
 40
762.310637263373
 40
762.310637263373
 10
6041.908518484786
 20
-12413.40516666412
 30
0.0
 10
5938.661565339014
 20
-12411.48607235607
 30
0.0
 10
5744.742627321915
 20
-12407.88161993561
 30
0.0
 10
5487.782490842089
 20
-12392.50800313554
 30
0.0
 10
5347.478628391094
 20
-12335.84344820401
 30
0.0
 10
5291.908841576049
 20
-12313.40046493536
 30
0.0
 11
6041.908518484786
 21
-12413.40516666412
 31
0.0
 11
5731.39157985225
 21
-12405.33436854652
 31
0.0
 11
5460.493055570958
 21
-12373.26944570861
 31
0.0
 11
5291.908841576049
 21
-12313.40046493536
 31
0.0
  0
SPLINE
  5
43B9
330
18
100
AcDbEntity
  8
OBJECT
  6
Continuous
 48
100.0
100
AcDbSpline
210
0.0
220
0.0
230
1.0
 70
     8
 71
     3
 72
    10
 73
     6
 74
     4
 42
0.0000000001
 43
0.0000000001
 44
0.0000000001
 40
0.0
 40
0.0
 40
0.0
 40
0.0
 40
310.6218069614194
 40
583.4114140478756
 40
762.310637263372
 40
762.310637263372
 40
762.310637263372
 40
762.310637263372
 10
6041.910085727876
 20
-12163.40516666788
 30
0.0
 10
5938.663132582103
 20
-12161.48607235983
 30
0.0
 10
5744.744194565006
 20
-12157.88161993937
 30
0.0
 10
5487.784058085177
 20
-12142.50800313929
 30
0.0
 10
5347.480195634183
 20
-12085.84344820777
 30
0.0
 10
5291.910408819138
 20
-12063.40046493912
 30
0.0
 11
6041.910085727876
 21
-12163.40516666788
 31
0.0
 11
5731.393147095339
 21
-12155.33436855027
 31
0.0
 11
5460.494622814047
 21
-12123.26944571236
 31
0.0
 11
5291.910408819138
 21
-12063.40046493912
 31
0.0
  0
SPLINE
  5
43BA
330
18
100
AcDbEntity
  8
OBJECT
  6
Continuous
 48
100.0
100
AcDbSpline
210
0.0
220
0.0
230
1.0
 70
     8
 71
     3
 72
    10
 73
     6
 74
     4
 42
0.0000000001
 43
0.0000000001
 44
0.0000000001
 40
0.0
 40
0.0
 40
0.0
 40
0.0
 40
310.6218069614193
 40
583.4114140478836
 40
762.310637263373
 40
762.310637263373
 40
762.310637263373
 40
762.310637263373
 10
6041.910399162211
 20
-12113.40744532403
 30
0.0
 10
5938.663446016438
 20
-12111.48835101598
 30
0.0
 10
5744.744507999338
 20
-12107.88389859552
 30
0.0
 10
5487.784371519508
 20
-12092.51028179544
 30
0.0
 10
5347.480509068517
 20
-12035.84572686391
 30
0.0
 10
5291.910722253473
 20
-12013.40274359526
 30
0.0
 11
6041.910399162211
 21
-12113.40744532403
 31
0.0
 11
5731.393460529674
 21
-12105.33664720642
 31
0.0
 11
5460.494936248375
 21
-12073.27172436851
 31
0.0
 11
5291.910722253473
 21
-12013.40274359526
 31
0.0
  0
LINE
  5
43BB
330
18
100
AcDbEntity
  8
OBJECT
  6
Continuous
 48
100.0
100
AcDbLine
 10
5291.910722253473
 20
-12013.40274359526
 30
0.0
 11
5291.910399176952
 21
-12113.40274359474
 31
0.0
  0
LINE
  5
43BD
330
18
100
AcDbEntity
  8
OBJECT
  6
Continuous
 48
100.0
100
AcDbLine
 10
20954.4152545461
 20
-12013.45737111983
 30
0.0
 11
21629.41525450895
 21
-12013.46365346606
 31
0.0
  0
LINE
  5
43BE
330
18
100
AcDbEntity
  8
OBJECT
  6
Continuous
 48
100.0
100
AcDbLine
 10
21954.41525450279
 20
-12013.46667829942
 30
0.0
 11
31056.91039970413
 21
-12013.55139685643
 31
0.0
  0
LINE
  5
43C0
330
18
100
AcDbEntity
  8
OBJECT
  6
Continuous
 48
100.0
100
AcDbLine
 10
6954.41525477828
 20
-12013.34199696879
 30
0.0
 11
7629.415254741129
 21
-12013.34827931501
 31
0.0
  0
LINE
  5
43C5
330
18
100
AcDbEntity
  8
OBJECT
  6
Continuous
 48
100.0
100
AcDbLine
 10
6792.16187436469
 20
-20381.3575280929
 30
0.0
 11
6792.162485374541
 21
-20118.760316417
 31
0.0
  0
LINE
  5
43C6
330
18
100
AcDbEntity
  8
OBJECT
  6
Continuous
 48
100.0
100
AcDbLine
 10
6792.161874356954
 20
-20381.35876181975
 30
0.0
 11
6792.159192937467
 21
-20643.95597348267
 31
0.0
  0
LINE
  5
43C7
330
18
100
AcDbEntity
  8
OBJECT
  6
Continuous
 48
100.0
100
AcDbLine
 10
7792.164666526961
 20
-20381.35994164612
 30
0.0
 11
7792.165277536811
 21
-20118.76272997023
 31
0.0
  0
LINE
  5
43C8
330
18
100
AcDbEntity
  8
OBJECT
  6
Continuous
 48
100.0
100
AcDbLine
 10
7792.164666519224
 20
-20381.36117537298
 30
0.0
 11
7792.161985099736
 21
-20643.95838703589
 31
0.0
  0
LINE
  5
43CC
330
18
100
AcDbEntity
  8
OBJECT
  6
Continuous
 48
100.0
100
AcDbLine
 10
20492.16315376161
 20
-19831.45455544156
 30
0.0
 11
22092.16594592253
 21
-19831.45827831989
 31
0.0
  0
LINE
  5
43CD
330
18
100
AcDbEntity
  8
OBJECT
  6
Continuous
 48
100.0
100
AcDbLine
 10
20492.16327010135
 20
-19781.4545554417
 30
0.0
 11
22092.16606226228
 21
-19781.45827832002
 31
0.0
  0
LINE
  5
43CE
330
18
100
AcDbEntity
  8
OBJECT
  6
Continuous
 48
100.0
100
AcDbLine
 10
20592.16117598568
 20
-20681.45478811875
 30
0.0
 11
21992.16024527422
 21
-20681.45804562944
 31
0.0
  0
LINE
  5
43CF
330
18
100
AcDbEntity
  8
OBJECT
  6
Continuous
 48
100.0
100
AcDbLine
 10
20792.16187402361
 20
-20381.45525347855
 30
0.0
 11
21792.16187399654
 21
-20381.45758027344
 31
0.0
  0
LINE
  5
43D0
330
18
100
AcDbEntity
  8
OBJECT
  6
Continuous
 48
100.0
100
AcDbLine
 10
20792.16187402361
 20
-20381.45525347855
 30
0.0
 11
20792.16248503346
 21
-20118.85804180265
 31
0.0
  0
LINE
  5
43D1
330
18
100
AcDbEntity
  8
OBJECT
  6
Continuous
 48
100.0
100
AcDbLine
 10
20492.16140866544
 20
-20581.45455543953
 30
0.0
 11
20492.16327010135
 21
-19781.4545554417
 31
0.0
  0
LINE
  5
43D2
330
18
100
AcDbEntity
  8
OBJECT
  6
Continuous
 48
100.0
100
AcDbLine
 10
20792.16187401587
 20
-20381.4564872054
 30
0.0
 11
20792.15919259639
 21
-20644.05369886831
 31
0.0
  0
ARC
  5
43D3
330
18
100
AcDbEntity
  8
OBJECT
  6
Continuous
 48
100.0
100
AcDbCircle
 10
20592.16140866517
 20
-20581.45478811902
 30
0.0
 40
100.0
100
AcDbArc
 50
179.9998666844728
 51
269.9998666844729
  0
CIRCLE
  5
43D4
330
18
100
AcDbEntity
  8
OBJECT
  6
Continuous
 48
100.0
100
AcDbCircle
 10
20792.16187402361
 20
-20381.45525347855
 30
0.0
 40
162.5000000000033
  0
CIRCLE
  5
43D5
330
18
100
AcDbEntity
  8
OBJECT
  6
Continuous
 48
100.0
100
AcDbCircle
 10
20792.16187402361
 20
-20381.45525347855
 30
0.0
 40
182.5
  0
ELLIPSE
  5
43D6
330
18
100
AcDbEntity
  8
OBJECT
  6
Continuous
 48
100.0
100
AcDbEllipse
 10
20492.16321193148
 20
-19806.45455544163
 30
0.0
 11
-68.21743512927206
 21
0.0001587279771722
 31
0.0
210
0.0
220
0.0
230
0.9999999999999998
 40
0.3664752266419262
 41
1.570796326794896
 42
4.712388980384689
  0
LINE
  5
43D7
330
18
100
AcDbEntity
  8
OBJECT
  6
Continuous
 48
100.0
100
AcDbLine
 10
21792.16466618588
 20
-20381.45766703177
 30
0.0
 11
21792.16527719573
 21
-20118.86045535588
 31
0.0
  0
LINE
  5
43D8
330
18
100
AcDbEntity
  8
OBJECT
  6
Continuous
 48
100.0
100
AcDbLine
 10
22092.16606226228
 20
-19781.45827832002
 30
0.0
 11
22092.16047795127
 21
-20581.45874366818
 31
0.0
  0
LINE
  5
43D9
330
18
100
AcDbEntity
  8
OBJECT
  6
Continuous
 48
100.0
100
AcDbLine
 10
21792.16466617814
 20
-20381.45890075862
 30
0.0
 11
21792.16198475866
 21
-20644.05611242154
 31
0.0
  0
CIRCLE
  5
43DA
330
18
100
AcDbEntity
  8
OBJECT
  6
Continuous
 48
100.0
100
AcDbCircle
 10
21792.16466618611
 20
-20381.45758027997
 30
0.0
 40
182.5
  0
CIRCLE
  5
43DB
330
18
100
AcDbEntity
  8
OBJECT
  6
Continuous
 48
100.0
100
AcDbCircle
 10
21792.16466618611
 20
-20381.45758027997
 30
0.0
 40
162.5000000000033
  0
ARC
  5
43DC
330
18
100
AcDbEntity
  8
OBJECT
  6
Continuous
 48
100.0
100
AcDbCircle
 10
21992.16047795371
 20
-20581.45804562971
 30
0.0
 40
100.0
100
AcDbArc
 50
269.9998666844729
 51
359.999600053418
  0
ELLIPSE
  5
43DD
330
18
100
AcDbEntity
  8
OBJECT
  6
Continuous
 48
100.0
100
AcDbEllipse
 10
22092.16600409241
 20
-19806.45827831995
 30
0.0
 11
68.21743512927206
 21
-0.0001587279821357
 31
0.0
210
0.0
220
0.0
230
-0.9999999999999998
 40
0.3664752266419262
 41
1.570796326794896
 42
4.712388980384689
  0
LINE
  5
43DE
330
18
100
AcDbEntity
  8
OBJECT
  6
Continuous
 48
100.0
100
AcDbLine
 10
32792.15965029811
 20
-20381.53901808835
 30
0.0
 11
33792.15965027105
 21
-20381.54134488324
 31
0.0
  0
LINE
  5
43DF
330
18
100
AcDbEntity
  8
OBJECT
  6
Continuous
 48
100.0
100
AcDbLine
 10
32592.15895226018
 20
-20681.53855272856
 30
0.0
 11
33992.15802154872
 21
-20681.54181023925
 31
0.0
  0
LINE
  5
43E0
330
18
100
AcDbEntity
  8
OBJECT
  6
Continuous
 48
100.0
100
AcDbLine
 10
32492.16104637585
 20
-19781.5383200515
 30
0.0
 11
34092.16383853678
 21
-19781.54204292983
 31
0.0
  0
LINE
  5
43E1
330
18
100
AcDbEntity
  8
OBJECT
  6
Continuous
 48
100.0
100
AcDbLine
 10
32492.16093003612
 20
-19831.53832005137
 30
0.0
 11
34092.16372219703
 21
-19831.54204292969
 31
0.0
  0
LINE
  5
43E2
330
18
100
AcDbEntity
  8
OBJECT
  6
Continuous
 48
100.0
100
AcDbLine
 10
32492.15918493994
 20
-20581.53832004934
 30
0.0
 11
32492.16104637585
 21
-19781.5383200515
 31
0.0
  0
LINE
  5
43E3
330
18
100
AcDbEntity
  8
OBJECT
  6
Continuous
 48
100.0
100
AcDbLine
 10
32792.15965029811
 20
-20381.53901808835
 30
0.0
 11
32792.16026130796
 21
-20118.94180641245
 31
0.0
  0
CIRCLE
  5
43E4
330
18
100
AcDbEntity
  8
OBJECT
  6
Continuous
 48
100.0
100
AcDbCircle
 10
32792.15965029811
 20
-20381.53901808835
 30
0.0
 40
182.5
  0
CIRCLE
  5
43E5
330
18
100
AcDbEntity
  8
OBJECT
  6
Continuous
 48
100.0
100
AcDbCircle
 10
32792.15965029811
 20
-20381.53901808835
 30
0.0
 40
162.5000000000033
  0
ARC
  5
43E6
330
18
100
AcDbEntity
  8
OBJECT
  6
Continuous
 48
100.0
100
AcDbCircle
 10
32592.15918493967
 20
-20581.53855272883
 30
0.0
 40
100.0
100
AcDbArc
 50
179.9998666844728
 51
269.9998666844729
  0
LINE
  5
43E7
330
18
100
AcDbEntity
  8
OBJECT
  6
Continuous
 48
100.0
100
AcDbLine
 10
32792.15965029037
 20
-20381.5402518152
 30
0.0
 11
32792.15696887089
 21
-20644.13746347812
 31
0.0
  0
ELLIPSE
  5
43E8
330
18
100
AcDbEntity
  8
OBJECT
  6
Continuous
 48
100.0
100
AcDbEllipse
 10
32492.16098820598
 20
-19806.53832005143
 30
0.0
 11
-68.21743512927206
 21
0.0001587279771722
 31
0.0
210
0.0
220
0.0
230
0.9999999999999998
 40
0.3664752266419262
 41
1.570796326794896
 42
4.712388980384689
  0
LINE
  5
43E9
330
18
100
AcDbEntity
  8
OBJECT
  6
Continuous
 48
100.0
100
AcDbLine
 10
34092.16383853678
 20
-19781.54204292983
 30
0.0
 11
34092.15825422577
 21
-20581.54250827798
 31
0.0
  0
LINE
  5
43EA
330
18
100
AcDbEntity
  8
OBJECT
  6
Continuous
 48
100.0
100
AcDbLine
 10
33792.16244246038
 20
-20381.54143164157
 30
0.0
 11
33792.16305347023
 21
-20118.94421996568
 31
0.0
  0
ARC
  5
43EB
330
18
100
AcDbEntity
  8
OBJECT
  6
Continuous
 48
100.0
100
AcDbCircle
 10
33992.15825422821
 20
-20581.54181023951
 30
0.0
 40
100.0
100
AcDbArc
 50
269.9998666844729
 51
359.999600053418
  0
CIRCLE
  5
43EC
330
18
100
AcDbEntity
  8
OBJECT
  6
Continuous
 48
100.0
100
AcDbCircle
 10
33792.16244246062
 20
-20381.54134488977
 30
0.0
 40
162.5000000000033
  0
CIRCLE
  5
43ED
330
18
100
AcDbEntity
  8
OBJECT
  6
Continuous
 48
100.0
100
AcDbCircle
 10
33792.16244246062
 20
-20381.54134488977
 30
0.0
 40
182.5
  0
LINE
  5
43EE
330
18
100
AcDbEntity
  8
OBJECT
  6
Continuous
 48
100.0
100
AcDbLine
 10
33792.16244245264
 20
-20381.54266536843
 30
0.0
 11
33792.15976103315
 21
-20644.13987703134
 31
0.0
  0
ELLIPSE
  5
43EF
330
18
100
AcDbEntity
  8
OBJECT
  6
Continuous
 48
100.0
100
AcDbEllipse
 10
34092.1637803669
 20
-19806.54204292976
 30
0.0
 11
68.21743512927206
 21
-0.0001587279821357
 31
0.0
210
0.0
220
0.0
230
-0.9999999999999998
 40
0.3664752266419262
 41
1.570796326794896
 42
4.712388980384689
  0
DIMENSION
  5
446B
330
18
100
AcDbEntity
  8
DIM
  6
Continuous
 48
100.0
100
AcDbDimension
  2
*D7
 10
36946.35734693107
 20
-31781.54890451012
 30
0.0
 11
36665.10734693107
 21
-25781.54890465629
 31
0.0
 70
    32
 71
     5
 42
-1.0
  3
STANDARD_WS
100
AcDbAlignedDimension
 13
34541.85571369321
 23
-19781.54890480247
 33
0.0
 14
34541.77194908471
 24
-31781.54890451012
 34
0.0
 50
90.0
100
AcDbRotatedDimension
1001
ACAD
1000
DSTYLE
1002
{
1070
    40
1040
150.0
1070
    42
1040
2.0
1070
   271
1070
     1
1002
}
  0
DIMENSION
  5
4479
330
18
100
AcDbEntity
  8
DIM
  6
Continuous
 48
100.0
100
AcDbDimension
  2
*D8
 10
5291.904994486653
 20
-15719.33847409436
 30
0.0
 11
6791.912908885379
 21
-15438.10728108864
 31
0.0
 70
    32
 71
     5
 42
-1.0
  3
STANDARD_WS
100
AcDbAlignedDimension
 13
8291.925129142951
 23
-14813.44987876196
 33
0.0
 14
5291.933905659869
 24
-13413.44434678176
 34
0.0
 50
359.9992816286809
100
AcDbRotatedDimension
1001
ACAD
1000
DSTYLE
1002
{
1070
    40
1040
150.0
1070
    42
1040
2.0
1070
   271
1070
     1
1002
}
  0
LINE
  5
447A
330
18
100
AcDbEntity
  8
OBJECT
  6
CENTER2
 48
0.04
100
AcDbLine
 10
20291.97057962422
 20
-4611.279051866702
 30
0.0
 11
20291.78860669194
 21
-34066.12086291645
 31
0.0
  0
DIMENSION
  5
449E
330
18
100
AcDbEntity
  8
DIM
  6
Continuous
 48
100.0
100
AcDbDimension
  2
*D9
 10
4567.713544932835
 20
-14813.44484896379
 30
0.0
 11
4286.463544932836
 21
-14113.44459787277
 31
0.0
 70
    32
 71
     5
 42
-1.0
  3
STANDARD_WS
100
AcDbAlignedDimension
 13
5291.933905659869
 23
-13413.44434678176
 33
0.0
 14
5564.341863285394
 24
-14813.44484896379
 34
0.0
 50
90.0
100
AcDbRotatedDimension
1001
ACAD
1000
DSTYLE
1002
{
1070
    40
1040
150.0
1070
    42
1040
2.0
1070
   271
1070
     1
1002
}
  0
DIMENSION
  5
449F
330
18
100
AcDbEntity
  8
DIM
  6
Continuous
 48
100.0
100
AcDbDimension
  2
*D10
 10
36016.10505620369
 20
-14813.64199806175
 30
0.0
 11
35734.86383279028
 21
-14113.63822072878
 31
0.0
 70
    32
 71
     5
 42
-1.0
  3
STANDARD_WS
100
AcDbAlignedDimension
 13
35291.90224866253
 23
-13413.63241575486
 33
0.0
 14
35019.47673792944
 24
-14813.62950239093
 34
0.0
 50
269.9992816286809
100
AcDbRotatedDimension
1001
ACAD
1000
DSTYLE
1002
{
1070
    40
1040
150.0
1070
    42
1040
2.0
1070
   271
1070
     1
1002
}
  0
DIMENSION
  5
44C3
330
18
100
AcDbEntity
  8
DIM
  6
Continuous
 48
100.0
100
AcDbDimension
  2
*D11
 10
35291.90047792278
 20
-16507.78675881074
 30
0.0
 11
20291.90121139395
 21
-16226.53675881075
 31
0.0
 70
    32
 71
     5
 42
-1.0
  3
STANDARD_WS
100
AcDbAlignedDimension
 13
5291.901944865117
 23
-13578.83884357656
 33
0.0
 14
35291.90047792278
 24
-13579.1596619638
 34
0.0
100
AcDbRotatedDimension
1001
ACAD
1000
DSTYLE
1002
{
1070
    40
1040
150.0
1070
    42
1040
2.0
1070
   271
1070
     1
1002
}
  0
ARC
  5
44C7
330
18
100
AcDbEntity
  8
OBJECT
  6
Continuous
 48
100.0
100
AcDbCircle
 10
20291.89026670809
 20
-17849.74441296434
 30
0.0
 40
350.6177064233055
100
AcDbArc
 50
89.99964081434022
 51
269.9996408143411
  0
ARC
  5
44C9
330
18
100
AcDbEntity
  8
OBJECT
  6
Continuous
 48
100.0
100
AcDbCircle
 10
19941.27256029856
 20
-17849.74221495162
 30
0.0
 40
350.6177064233055
100
AcDbArc
 50
269.9996408143398
 51
89.99964081434065
  0
ARC
  5
44CA
330
18
100
AcDbEntity
  8
OBJECT
  6
Continuous
 48
100.0
100
AcDbCircle
 10
20642.50797311762
 20
-17849.74661097706
 30
0.0
 40
350.6177064233055
100
AcDbArc
 50
89.99964081434022
 51
269.9996408143411
  0
ARC
  5
44CB
330
18
100
AcDbEntity
  8
OBJECT
  6
Continuous
 48
100.0
100
AcDbCircle
 10
20291.89026670809
 20
-17849.74441296434
 30
0.0
 40
350.6177064233055
100
AcDbArc
 50
269.9996408143398
 51
89.99964081434065
  0
LINE
  5
44CD
330
18
100
AcDbEntity
  8
OBJECT
  6
Continuous
 48
100.0
100
AcDbLine
 10
25691.97165408943
 20
-6565.057386371676
 30
0.0
 11
25691.98138970252
 21
-5611.627733058227
 31
0.0
  0
LINE
  5
44CE
330
18
100
AcDbEntity
  8
OBJECT
  6
Continuous
 48
100.0
100
AcDbLine
 10
25874.47794263368
 20
-5949.207526362809
 30
0.0
 11
25509.47794266237
 21
-5949.202950012967
 31
0.0
  0
LINE
  5
44CF
330
18
100
AcDbEntity
  8
OBJECT
  6
Continuous
 48
100.0
100
AcDbLine
 10
25874.47779217834
 20
-5961.207526361866
 30
0.0
 11
25509.47779220703
 21
-5961.202950012024
 31
0.0
  0
LINE
  5
44D0
330
18
100
AcDbEntity
  8
OBJECT
  6
Continuous
 48
100.0
100
AcDbLine
 10
25874.47794263368
 20
-5949.207526362809
 30
0.0
 11
25874.47779217834
 21
-5961.207526361866
 31
0.0
  0
LINE
  5
44D1
330
18
100
AcDbEntity
  8
OBJECT
  6
Continuous
 48
100.0
100
AcDbLine
 10
25509.47794266237
 20
-5949.202950012967
 30
0.0
 11
25509.47779220703
 21
-5961.202950012024
 31
0.0
  0
LINE
  5
44D2
330
18
100
AcDbEntity
  8
OBJECT
  6
Continuous
 48
100.0
100
AcDbLine
 10
25854.47165408096
 20
-6565.059045683536
 30
0.0
 11
25854.47782010189
 21
-5961.207275603321
 31
0.0
  0
LINE
  5
44D3
330
18
100
AcDbEntity
  8
OBJECT
  6
Continuous
 48
100.0
100
AcDbLine
 10
25529.47165409791
 20
-6565.055727059825
 30
0.0
 11
25529.47782012655
 21
-5961.20320077127
 31
0.0
  0
LINE
  5
44F8
330
18
100
AcDbEntity
  8
DIM
  6
Continuous
 48
100.0
100
AcDbLine
 10
26441.94408395348
 20
-9265.063512920844
 30
0.0
 11
27909.59257705283
 21
-9265.063512920844
 31
0.0
  0
LINE
  5
4516
330
18
100
AcDbEntity
  8
DIM
  6
Continuous
 48
100.0
100
AcDbLine
 10
27648.77143252668
 20
-7275.063512922199
 30
0.0
 11
28286.7924600683
 21
-7275.063512922198
 31
0.0
  0
LINE
  5
4518
330
18
100
AcDbEntity
  8
DIM
  6
Continuous
 48
100.0
100
AcDbLine
 10
27788.77306129259
 20
-7415.063512922199
 30
0.0
 11
28146.79083130239
 21
-7415.063512922198
 31
0.0
  0
LINE
  5
4532
330
18
100
AcDbEntity
  8
FS
  6
ByBlock
 62
     0
 48
100.0
100
AcDbLine
 10
22717.9664307199
 20
-15865.52770303129
 30
0.0
 11
17865.83898091171
 21
-15865.49326245332
 31
0.0
  0
SOLID
  5
4533
330
18
100
AcDbEntity
  8
FS
  6
ByBlock
 62
     0
 48
100.0
100
AcDbTrace
 10
22717.96721434145
 20
-15803.0277030362
 30
0.0
 11
22717.96564709835
 21
-15928.02770302637
 31
0.0
 12
23092.96643069042
 22
-15865.53240476057
 32
0.0
 13
23092.96643069042
 23
-15865.53240476057
 33
0.0
  0
SOLID
  5
4534
330
18
100
AcDbEntity
  8
FS
  6
ByBlock
 62
     0
 48
100.0
100
AcDbTrace
 10
17865.83976453326
 20
-15802.99326245824
 30
0.0
 11
17865.83819729016
 21
-15927.99326244841
 31
0.0
 12
17490.83898094119
 22
-15865.48856072403
 32
0.0
 13
17490.83898094119
 23
-15865.48856072403
 33
0.0
  0
MTEXT
  5
4535
330
18
100
AcDbEntity
  8
FS
  6
ByBlock
 62
     0
 48
100.0
100
AcDbMText
 10
20329.61813785778
 20
-15584.2635978105
 30
0.0
 40
320.0
 41
0.0
 71
     5
 72
     1
  1
\A1;FRAME SPACE 2000
 11
0.9999999999213999
 21
-0.0000125379447703
 31
0.0
 73
     1
 44
1.0
  0
MTEXT
  5
4539
330
18
100
AcDbEntity
  8
LONG
  6
ByBlock
 62
     0
 48
100.0
100
AcDbMText
 10
35883.668041665
 20
-25743.82409490398
 30
0.0
 40
320.0
 41
0.0
 71
     5
 72
     1
  1
\A1;LONG  SPACE 600
 11
0.0000148647396671
 21
0.9999999998895198
 31
0.0
 73
     1
 44
1.0
  0
LINE
  5
453A
330
18
100
AcDbEntity
  8
LONG
  6
ByBlock
 62
     0
 48
100.0
100
AcDbLine
 10
36164.93770408163
 20
-23355.47645649221
 30
0.0
 11
36164.89197359828
 21
-28207.60390620712
 31
0.0
  0
SOLID
  5
453B
330
18
100
AcDbEntity
  8
LONG
  6
ByBlock
 62
     0
 48
100.0
100
AcDbTrace
 10
36102.39197360519
 20
-28207.6029771609
 30
0.0
 11
36227.39197359139
 21
-28207.60483525335
 31
0.0
 12
36164.88639932091
 22
-28582.6039061657
 32
0.0
 13
36164.88639932091
 23
-28582.6039061657
 33
0.0
  0
SOLID
  5
453D
330
18
100
AcDbEntity
  8
LONG
  6
ByBlock
 62
     0
 48
100.0
100
AcDbTrace
 10
36102.43770408854
 20
-23355.47552744598
 30
0.0
 11
36227.43770407473
 21
-23355.47738553845
 31
0.0
 12
36164.94327835902
 22
-22980.47645653364
 32
0.0
 13
36164.94327835902
 23
-22980.47645653364
 33
0.0
  0
LINE
  5
4548
330
18
100
AcDbEntity
  8
OBJECT
  6
Continuous
 48
100.0
100
AcDbLine
 10
35241.81976042625
 20
-25431.55337374237
 30
0.0
 11
34491.81756629409
 21
-25431.54988353982
 31
0.0
  0
LINE
  5
4549
330
18
100
AcDbEntity
  8
OBJECT
  6
Continuous
 48
100.0
100
AcDbLine
 10
34491.81756629409
 20
-25431.54988353982
 30
0.0
 11
34491.81497674362
 21
-25781.56619467879
 31
0.0
  0
CIRCLE
  5
454A
330
18
100
AcDbEntity
  8
OBJECT
  6
HIDDEN2
 48
0.02
100
AcDbCircle
 10
34841.81756628543
 20
-25781.55360641166
 30
0.0
 40
125.0
  0
CIRCLE
  5
454B
330
18
100
AcDbEntity
  8
OBJECT
  6
Continuous
 48
100.0
100
AcDbCircle
 10
34841.81756628543
 20
-25781.55360641166
 30
0.0
 40
165.0
  0
LINE
  5
454C
330
18
100
AcDbEntity
  8
OBJECT
  6
Continuous
 48
100.0
100
AcDbLine
 10
34491.81238719314
 20
-26131.58250581774
 30
0.0
 11
34491.81497674361
 21
-25781.56619467878
 31
0.0
  0
LINE
  5
454D
330
18
100
AcDbEntity
  8
OBJECT
  6
Continuous
 48
100.0
100
AcDbLine
 10
35241.81537191525
 20
-26131.59011321195
 30
0.0
 11
34491.81238719314
 21
-26131.58250581774
 31
0.0
  0
LINE
  5
454E
330
18
100
AcDbEntity
  8
OBJECT
  6
Continuous
 48
0.04
100
AcDbLine
 10
35241.82195456709
 20
-25081.55329299054
 30
0.0
 11
35241.81317777441
 21
-26481.5901939634
 31
0.0
  0
LINE
  5
454F
330
18
100
AcDbEntity
  8
OBJECT
  6
Continuous
 48
100.0
100
AcDbLine
 10
35291.81756628543
 20
-25081.55360641165
 30
0.0
 11
35241.82195456709
 21
-25081.55329299054
 31
0.0
  0
LINE
  5
4550
330
18
100
AcDbEntity
  8
OBJECT
  6
Continuous
 48
100.0
100
AcDbLine
 10
35291.80720829238
 20
-26481.59062030095
 30
0.0
 11
35241.81317777441
 21
-26481.5901939634
 31
0.0
  0
LINE
  5
4552
330
18
100
AcDbEntity
  8
OBJECT
  6
Continuous
 48
100.0
100
AcDbLine
 10
34491.91683735167
 20
-12013.58336707822
 30
0.0
 11
34491.91692613209
 21
-12001.58336707853
 31
0.0
  0
LINE
  5
4553
330
18
100
AcDbEntity
  8
OBJECT
  6
Continuous
 48
100.0
100
AcDbLine
 10
35006.92238541866
 20
-11613.58816031002
 30
0.0
 11
35006.92247419908
 21
-11601.58816031032
 31
0.0
  0
LINE
  5
4554
330
18
100
AcDbEntity
  8
OBJECT
  6
Continuous
 48
100.0
100
AcDbLine
 10
34676.9223868285
 20
-11613.58508894077
 30
0.0
 11
34676.92247560892
 21
-11601.58508894107
 31
0.0
  0
LINE
  5
4555
330
18
100
AcDbEntity
  8
OBJECT
  6
Continuous
 48
100.0
100
AcDbLine
 10
35241.91942676821
 20
-12013.59034748701
 30
0.0
 11
35241.91951554863
 21
-12001.59034748732
 31
0.0
  0
LINE
  5
4556
330
18
100
AcDbEntity
  8
OBJECT
  6
Continuous
 48
100.0
100
AcDbLine
 10
34966.91951463004
 20
-12001.58778801292
 30
0.0
 11
34966.92238519695
 21
-11613.58778802284
 31
0.0
  0
LINE
  5
4557
330
18
100
AcDbEntity
  8
OBJECT
  6
Continuous
 48
100.0
100
AcDbLine
 10
34716.91951648331
 20
-12001.58546121804
 30
0.0
 11
34716.92238705022
 21
-11613.58546122796
 31
0.0
  0
LINE
  5
4559
330
18
100
AcDbEntity
  8
OBJECT
  6
Continuous
 48
100.0
100
AcDbLine
 10
34491.91692613209
 20
-12001.58336707853
 30
0.0
 11
35241.91951554863
 21
-12001.59034748732
 31
0.0
  0
LINE
  5
455A
330
18
100
AcDbEntity
  8
OBJECT
  6
Continuous
 48
100.0
100
AcDbLine
 10
34676.9223868285
 20
-11613.58508894077
 30
0.0
 11
35006.92238541866
 21
-11613.58816031002
 31
0.0
  0
LINE
  5
455B
330
18
100
AcDbEntity
  8
OBJECT
  6
Continuous
 48
100.0
100
AcDbLine
 10
34676.92247560892
 20
-11601.58508894107
 30
0.0
 11
35006.92247419908
 21
-11601.58816031032
 31
0.0
  0
LINE
  5
455C
330
18
100
AcDbEntity
  8
OBJECT
  6
Continuous
 48
100.0
100
AcDbLine
 10
6091.936932320415
 20
-12001.4053283882
 30
0.0
 11
5341.934342875305
 21
-12001.40290530595
 31
0.0
  0
LINE
  5
455D
330
18
100
AcDbEntity
  8
OBJECT
  6
Continuous
 48
100.0
100
AcDbLine
 10
6091.936870645492
 20
-12013.40532838806
 30
0.0
 11
6091.936932320415
 21
-12001.4053283882
 31
0.0
  0
LINE
  5
455E
330
18
100
AcDbEntity
  8
OBJECT
  6
Continuous
 48
100.0
100
AcDbLine
 10
5341.934281200389
 20
-12013.40290530581
 30
0.0
 11
5341.934342875305
 21
-12001.40290530595
 31
0.0
  0
LINE
  5
455F
330
18
100
AcDbEntity
  8
OBJECT
  6
Continuous
 48
100.0
100
AcDbLine
 10
5616.934343804373
 20
-12001.40379376638
 30
0.0
 11
5616.936337960033
 21
-11613.4037937708
 31
0.0
  0
LINE
  5
4560
330
18
100
AcDbEntity
  8
OBJECT
  6
Continuous
 48
100.0
100
AcDbLine
 10
5866.934341960631
 20
-12001.40460145767
 30
0.0
 11
5866.936336116291
 21
-11613.40460146209
 31
0.0
  0
LINE
  5
4561
330
18
100
AcDbEntity
  8
OBJECT
  6
Continuous
 48
100.0
100
AcDbLine
 10
5906.936336339532
 20
-11613.4047306927
 30
0.0
 11
5576.9363377368
 21
-11613.40366454019
 31
0.0
  0
LINE
  5
4562
330
18
100
AcDbEntity
  8
OBJECT
  6
Continuous
 48
100.0
100
AcDbLine
 10
5576.9363377368
 20
-11613.40366454019
 30
0.0
 11
5576.936399411716
 21
-11601.40366454032
 31
0.0
  0
LINE
  5
4563
330
18
100
AcDbEntity
  8
OBJECT
  6
Continuous
 48
100.0
100
AcDbLine
 10
5906.936398014455
 20
-11601.40473069283
 30
0.0
 11
5576.936399411716
 21
-11601.40366454032
 31
0.0
  0
LINE
  5
4564
330
18
100
AcDbEntity
  8
OBJECT
  6
Continuous
 48
100.0
100
AcDbLine
 10
5906.936336339532
 20
-11613.4047306927
 30
0.0
 11
5906.936398014455
 21
-11601.40473069283
 31
0.0
  0
CIRCLE
  5
4565
330
18
100
AcDbEntity
  8
OBJECT
  6
HIDDEN2
 48
0.02
100
AcDbCircle
 10
5741.863519688784
 20
-25781.37117960332
 30
0.0
 40
125.0
  0
LINE
  5
4566
330
18
100
AcDbEntity
  8
OBJECT
  6
Continuous
 48
0.04
100
AcDbLine
 10
5341.867908003834
 20
-25081.3658510043
 30
0.0
 11
5341.859131211168
 21
-26481.40275197715
 31
0.0
  0
CIRCLE
  5
4567
330
18
100
AcDbEntity
  8
OBJECT
  6
Continuous
 48
100.0
100
AcDbCircle
 10
5741.863519688784
 20
-25781.37117960332
 30
0.0
 40
165.0
  0
LINE
  5
4568
330
18
100
AcDbEntity
  8
OBJECT
  6
Continuous
 48
100.0
100
AcDbLine
 10
6091.867907979955
 20
-25431.37184503967
 30
0.0
 11
6091.866109045252
 21
-25781.38815618359
 31
0.0
  0
LINE
  5
4569
330
18
100
AcDbEntity
  8
OBJECT
  6
Continuous
 48
100.0
100
AcDbLine
 10
5341.861325352009
 20
-26131.4026712257
 30
0.0
 11
6091.864310110555
 21
-26131.4044673275
 31
0.0
  0
LINE
  5
456A
330
18
100
AcDbEntity
  8
OBJECT
  6
Continuous
 48
100.0
100
AcDbLine
 10
6091.864310110555
 20
-26131.4044673275
 30
0.0
 11
6091.866109045259
 21
-25781.38815618358
 31
0.0
  0
LINE
  5
456B
330
18
100
AcDbEntity
  8
OBJECT
  6
Continuous
 48
100.0
100
AcDbLine
 10
5291.865100691779
 20
-26481.40255149231
 30
0.0
 11
5341.859131211168
 21
-26481.40275197715
 31
0.0
  0
LINE
  5
456D
330
18
100
AcDbEntity
  8
OBJECT
  6
Continuous
 48
100.0
100
AcDbLine
 10
5341.865713862993
 20
-25431.36593175614
 30
0.0
 11
6091.867907979955
 21
-25431.37184503967
 31
0.0
  0
LINE
  5
456E
330
18
100
AcDbEntity
  8
OBJECT
  6
Continuous
 48
100.0
100
AcDbLine
 10
5291.872296285488
 20
-25081.3655375832
 30
0.0
 11
5341.867908003834
 21
-25081.3658510043
 31
0.0
  0
ARC
  5
4570
330
18
100
AcDbEntity
  8
OBJECT
  6
Continuous
 48
100.0
100
AcDbCircle
 10
35266.91942676713
 20
-12013.5905801665
 30
0.0
 40
25.0
100
AcDbArc
 50
359.9994667378914
 51
179.9994667378914
  0
ARC
  5
4571
330
18
100
AcDbEntity
  8
OBJECT
  6
Continuous
 48
100.0
100
AcDbCircle
 10
5316.93428120052
 20
-12013.40282453668
 30
0.0
 40
25.0
100
AcDbArc
 50
359.9998148907895
 51
179.9998148907895
  0
MTEXT
  5
45FA
330
18
100
AcDbEntity
  8
OBJECT
  6
Continuous
 48
100.0
100
AcDbMText
 10
6016.124310421758
 20
-14558.76631766536
 30
0.0
 40
200.0
 41
1453.6594
 71
     1
 72
     5
  1
SKEG
 73
     1
 44
1.0
  0
LINE
  5
45FC
330
18
100
AcDbEntity
  8
OBJECT
  6
Continuous
 48
100.0
100
AcDbLine
 10
15061.91259647778
 20
-4989.6092280905
 30
0.0
 11
19603.52955369006
 21
-4989.6092280905
 31
0.0
  0
MTEXT
  5
45FD
330
18
100
AcDbEntity
  8
OBJECT
  6
Continuous
 48
100.0
100
AcDbMText
 10
15321.33144704039
 20
-4667.82265807716
 30
0.0
 40
250.0
 41
4676.183299999999
 71
     1
 72
     5
  1
TYPICAL TRANS SEC
 73
     1
 44
1.0
  0
DIMENSION
  5
460C
330
18
100
AcDbEntity
  8
DIM
  6
Continuous
 48
100.0
100
AcDbDimension
  2
*D12
 10
25529.47473669056
 20
-6274.277741405531
 30
0.0
 11
20356.53846409242
 21
-6274.277741405531
 31
0.0
 70
   160
  1
10450
 71
     5
 42
-1.0
  3
STANDARD_WS
100
AcDbAlignedDimension
 13
15054.45106905393
 23
-6263.063796281435
 33
0.0
 14
25529.47473669056
 24
-6263.170758317985
 34
0.0
100
AcDbRotatedDimension
1001
ACAD
1000
DSTYLE
1002
{
1070
    40
1040
150.0
1070
    42
1040
2.0
1070
   271
1070
     1
1002
}
  0
MTEXT
  5
4623
330
18
100
AcDbEntity
  8
LONG
  6
ByBlock
 62
     0
 48
100.0
100
AcDbMText
 10
35835.58336177146
 20
-26443.1331509281
 30
0.0
 40
280.0
 41
0.0
 71
     5
 72
     1
  1
L
 11
0.0000148647396671
 21
0.9999999998895198
 31
0.0
 73
     1
 44
1.0
  0
LINE
  5
4624
330
18
100
AcDbEntity
  8
LONG
  6
Continuous
 48
100.0
100
AcDbLine
 10
36080.77636255033
 20
-26332.4765787184
 30
0.0
 11
36080.7747370296
 21
-26565.34637106946
 31
0.0
  0
MTEXT
  5
4625
330
18
100
AcDbEntity
  8
DIM
  6
ByBlock
 62
     0
 48
100.0
100
AcDbMText
 10
24111.17169264699
 20
-28535.46544009779
 30
0.0
 40
320.0
 41
0.0
 71
     5
 72
     1
  1
DECK PL t=25
 11
0.9999999999213999
 21
-0.0000125379447703
 31
0.0
 73
     1
 44
1.0
  0
DIMENSION
  5
4632
330
18
100
AcDbEntity
  8
DIM
  6
Continuous
 48
100.0
100
AcDbDimension
  2
*D13
 10
36889.71850170481
 20
-14813.62439515321
 30
0.0
 11
36608.4685017048
 21
-13463.6041137674
 31
0.0
 70
    32
 71
     5
 42
-1.0
  3
STANDARD_WS
100
AcDbAlignedDimension
 13
34541.9103986234
 23
-12113.58383238161
 33
0.0
 14
34541.88152453335
 24
-14813.62439515321
 34
0.0
 50
90.0
100
AcDbRotatedDimension
1001
ACAD
1000
DSTYLE
1002
{
1070
    40
1040
150.0
1070
    42
1040
2.0
1070
   271
1070
     1
1002
}
  0
DIMENSION
  5
4641
330
18
100
AcDbEntity
  8
DIM
  6
Continuous
 48
100.0
100
AcDbDimension
  2
*D14
 10
36889.71850170481
 20
-12013.59081284599
 30
0.0
 11
36608.4685017048
 21
-10794.84081284598
 31
0.0
 70
    32
 71
     5
 42
-1.0
  3
STANDARD_WS
100
AcDbAlignedDimension
 13
34541.9103986234
 23
-12113.58383238161
 33
0.0
 14
35291.91942676604
 24
-12013.59081284599
 34
0.0
 50
90.0
100
AcDbRotatedDimension
1001
ACAD
1000
DSTYLE
1002
{
1070
    40
1040
150.0
1070
    42
1040
2.0
1070
   271
1070
     1
1002
}
  0
MTEXT
  5
4642
330
18
100
AcDbEntity
  8
DIM
  6
Continuous
 48
100.0
100
AcDbMText
 10
36094.56565681572
 20
-11444.86392729271
 30
0.0
 40
200.0
 41
1453.6594
 71
     1
 72
     5
  1
CAMBER
 11
0.0000116339744812
 21
0.9999999999323254
 31
0.0
 73
     1
 44
1.0
  0
DIMENSION
  5
466C
330
18
100
AcDbEntity
  8
DIM
  6
Continuous
 48
100.0
100
AcDbDimension
  2
*D15
 10
20291.96101029683
 20
-6565.025899160564
 30
0.0
 11
20669.26703687551
 21
-6832.507510318049
 31
0.0
 70
   164
 71
     5
 42
-1.0
  3
STANDARD_WS
100
AcDbRadialDimension
 15
20210.3813288744
 25
-6507.192037288674
 35
0.0
 40
0.0
1001
ACAD
1000
DSTYLE
1002
{
1070
   287
1070
     4
1070
    40
1040
60.0
1070
    42
1040
2.0
1070
   271
1070
     1
1070
   279
1070
     1
1070
   288
1070
     1
1002
}
  0
MTEXT
  5
4678
330
18
100
AcDbEntity
  8
DIM
  6
Continuous
 48
100.0
100
AcDbMText
 10
22844.65537742299
 20
-7548.002843237918
 30
0.0
 40
250.0
 41
631.9498
 71
     1
 72
     5
  1
10
 73
     1
 44
1.0
  0
SPLINE
  5
4689
330
18
100
AcDbEntity
  8
DIM
  6
Continuous
 48
100.0
100
AcDbSpline
210
0.0
220
0.0
230
1.0
 70
     8
 71
     3
 72
    11
 73
     7
 74
     5
 42
0.0000000001
 43
0.0000000001
 44
0.0000000001
 40
0.0
 40
0.0
 40
0.0
 40
0.0
 40
111.8037110495715
 40
223.6067977545587
 40
335.4098844595394
 40
447.2135955091093
 40
447.2135955091093
 40
447.2135955091093
 40
447.2135955091093
 10
22798.33545340727
 20
-7910.811462106863
 30
0.0
 10
22831.6689147152
 20
-7885.811415570834
 30
0.0
 10
22898.33565118727
 20
-7835.811462106341
 30
0.0
 10
22998.33545341214
 20
-7910.81146210686
 30
0.0
 10
23098.33525563701
 20
-7985.811462107378
 30
0.0
 10
23165.00199210908
 20
-7935.811508642887
 30
0.0
 10
23198.33545341701
 20
-7910.81146210686
 30
0.0
 11
22798.33545340727
 21
-7910.811462106863
 31
0.0
 11
22898.33580242894
 21
-7860.811462106859
 31
0.0
 11
22998.33545341214
 21
-7910.81146210686
 31
0.0
 11
23098.33510439534
 21
-7960.811462106859
 31
0.0
 11
23198.33545341701
 21
-7910.81146210686
 31
0.0
  0
DIMENSION
  5
4696
330
18
100
AcDbEntity
  8
DIM
  6
Continuous
 48
100.0
100
AcDbDimension
  2
*D16
 10
26291.94408395349
 20
-10344.29737067749
 30
0.0
 11
20291.94408407139
 21
-10063.04737067749
 31
0.0
 70
    32
 71
     5
 42
-1.0
  3
STANDARD_WS
100
AcDbAlignedDimension
 13
14291.94408418929
 23
-9264.988285252215
 33
0.0
 14
26291.94408395349
 24
-9265.063512920837
 34
0.0
100
AcDbRotatedDimension
1001
ACAD
1000
DSTYLE
1002
{
1070
    40
1040
150.0
1070
    42
1040
2.0
1070
   271
1070
     1
1002
}
  0
MTEXT
  5
46A1
330
18
100
AcDbEntity
  8
BHD
  6
Continuous
 48
100.0
100
AcDbMText
 10
18911.45336204831
 20
-25607.49583259957
 30
0.0
 40
250.0
 41
1600.0
 71
     1
 72
     5
  1
W.T BHD
 11
0.0000023267948964
 21
0.999999999997293
 31
0.0
 73
     1
 44
1.0
  0
MTEXT
  5
46A2
330
18
100
AcDbEntity
  8
BHD
  6
Continuous
 48
100.0
100
AcDbMText
 10
30911.45336183473
 20
-25607.56831146074
 30
0.0
 40
250.0
 41
1600.0
 71
     1
 72
     5
  1
W.T BHD
 11
0.0000023267948964
 21
0.999999999997293
 31
0.0
 73
     1
 44
1.0
  0
MTEXT
  5
46A3
330
18
100
AcDbEntity
  8
BHD
  6
Continuous
 48
100.0
100
AcDbMText
 10
21466.06940715351
 20
-25400.79911658673
 30
0.0
 40
250.0
 41
1600.0
 71
     1
 72
     5
  1
W.T BHD
 11
0.999999999997293
 21
-0.0000023267948966
 31
0.0
 73
     1
 44
1.0
  0
MTEXT
  5
46A4
330
18
100
AcDbEntity
  8
BHD
  6
Continuous
 48
100.0
100
AcDbMText
 10
13466.06940734841
 20
-25400.74327350922
 30
0.0
 40
250.0
 41
1600.0
 71
     1
 72
     5
  1
W.T BHD
 11
0.999999999997293
 21
-0.0000023267948966
 31
0.0
 73
     1
 44
1.0
  0
MTEXT
  5
46A5
330
18
100
AcDbEntity
  8
BHD
  6
Continuous
 48
100.0
100
AcDbMText
 10
27466.06940690521
 20
-25400.85562853926
 30
0.0
 40
250.0
 41
1600.0
 71
     1
 72
     5
  1
W.T BHD
 11
0.999999999997293
 21
-0.0000023267948966
 31
0.0
 73
     1
 44
1.0
  0
MTEXT
  5
46A6
330
18
100
AcDbEntity
  8
OBJECT
  6
Continuous
 48
100.0
100
AcDbMText
 10
5840.479147571335
 20
-21111.26655096764
 30
0.0
 40
200.0
 41
1453.6594
 71
     1
 72
     5
  1
SKEG
 11
0.9947273409093188
 21
-0.1025549474548918
 31
0.0
 73
     1
 44
1.0
  0
MTEXT
  5
46A7
330
18
100
AcDbEntity
  8
OBJECT
  6
Continuous
 48
100.0
100
AcDbMText
 10
5788.196191947228
 20
-29694.76806368929
 30
0.0
 40
200.0
 41
1453.6594
 71
     1
 72
     5
  1
SKEG
 11
0.9947283699344914
 21
0.1025449659781967
 31
0.0
 73
     1
 44
1.0
  0
MTEXT
  5
46A8
330
18
100
AcDbEntity
  8
OBJECT
  6
Continuous
 48
100.0
100
AcDbMText
 10
21097.50307831343
 20
-4694.715853810729
 30
0.0
 40
250.0
 41
4676.183299999999
 71
     1
 72
     5
  1
TYPICAL W.T BHD SEC
 73
     1
 44
1.0
  0
LINE
  5
46A9
330
18
100
AcDbEntity
  8
OBJECT
  6
Continuous
 48
100.0
100
AcDbLine
 10
20971.63737129286
 20
-5016.503045325613
 30
0.0
 11
25513.25432850513
 21
-5016.503045325613
 31
0.0
  0
LINE
  5
46B5
330
18
100
AcDbEntity
  8
OBJECT
  6
Continuous
 48
100.0
100
AcDbLine
 10
32591.89204197365
 20
-14813.60354206949
 30
0.0
 11
32918.06046308861
 21
-14644.48330291433
 31
0.0
  0
LINE
  5
46B6
330
18
100
AcDbEntity
  8
OBJECT
  6
Continuous
 48
100.0
100
AcDbLine
 10
33195.28579734748
 20
-14388.09717324024
 30
0.0
 11
35291.90295482174
 21
-13300.98888152776
 31
0.0
  0
ARC
  5
46B7
330
18
100
AcDbEntity
  8
OBJECT
  6
Continuous
 48
100.0
100
AcDbCircle
 10
31860.39169536173
 20
-11813.59571927218
 30
0.0
 40
3000.0
100
AcDbArc
 50
269.9993872819841
 51
297.4070040382007
  0
ARC
  5
46B8
330
18
100
AcDbEntity
  8
OBJECT
  6
Continuous
 48
100.0
100
AcDbCircle
 10
31860.39169536173
 20
-11813.59571927218
 30
0.0
 40
2900.0
100
AcDbArc
 50
269.9993872819841
 51
297.4070040382007
  0
LINE
  5
46BD
330
18
100
AcDbEntity
  8
OBJECT
  6
Continuous
 48
100.0
100
AcDbLine
 10
33245.33635447969
 20
-14474.78883392629
 30
0.0
 11
35291.90224866253
 21
-13413.63241575486
 31
0.0
  0
LINE
  5
46BE
330
18
100
AcDbEntity
  8
OBJECT
  6
Continuous
 48
100.0
100
AcDbLine
 10
32232.7379732176
 20
-14813.59970129501
 30
0.0
 11
32591.89204197365
 21
-14813.60354206949
 31
0.0
  0
DIMENSION
  5
46CB
330
18
100
AcDbEntity
  8
DIM
  6
Continuous
 48
100.0
100
AcDbDimension
  2
*D17
 10
35291.88727653687
 20
-15928.72323361589
 30
0.0
 11
33941.88965925525
 21
-15647.47323361589
 31
0.0
 70
    32
 71
     5
 42
-1.0
  3
STANDARD_WS
100
AcDbAlignedDimension
 13
32591.89204197365
 23
-14813.6035420695
 33
0.0
 14
35291.88727653687
 24
-14813.6324156748
 34
0.0
100
AcDbRotatedDimension
1001
ACAD
1000
DSTYLE
1002
{
1070
    40
1040
150.0
1070
    42
1040
2.0
1070
   271
1070
     1
1002
}
  0
SPLINE
  5
46CC
330
18
100
AcDbEntity
  8
OBJECT
  6
Continuous
 48
100.0
100
AcDbSpline
210
0.0
220
0.0
230
1.0
 70
     8
 71
     3
 72
    34
 73
    30
 74
     0
 42
0.0000000001
 43
0.0000000001
 40
0.0
 40
0.0
 40
0.0
 40
0.0
 40
654.9339038013145
 40
654.9339038013145
 40
1280.267912349545
 40
1280.267912349545
 40
1743.16600636319
 40
1743.16600636319
 40
2206.064100376834
 40
2206.064100376834
 40
2691.963735728193
 40
2691.963735728193
 40
3028.075330664064
 40
3028.075330664064
 40
3364.186925599934
 40
3364.186925599934
 40
4036.410115471674
 40
4036.410115471674
 40
4385.183650566311
 40
4385.183650566311
 40
4508.315683506422
 40
4508.315683506422
 40
4631.447716446532
 40
4631.447716446532
 40
4877.711782326755
 40
4877.711782326755
 40
5370.239914087197
 40
5370.239914087197
 40
6001.025369264581
 40
6001.025369264581
 40
6001.025369264581
 40
6001.025369264581
 10
14302.4246500591
 20
-6964.851123473666
 30
0.0
 10
14520.66132325168
 20
-6959.134481235857
 30
0.0
 10
14738.84519943776
 20
-6953.41923246346
 30
0.0
 10
15165.25297662009
 20
-6942.418633520356
 30
0.0
 10
15373.48135647214
 20
-6937.125527161808
 30
0.0
 10
15735.77174092425
 20
-6928.184183542524
 30
0.0
 10
15889.85145988043
 20
-6924.46750434121
 30
0.0
 10
16197.9907518651
 20
-6917.254260056619
 30
0.0
 10
16352.04734298416
 20
-6913.756293530764
 30
0.0
 10
16667.78951908341
 20
-6906.846167144715
 30
0.0
 10
16829.47380597396
 20
-6903.446908062608
 30
0.0
 10
17102.97689495704
 20
-6897.967597405223
 30
0.0
 10
17214.80441985328
 20
-6895.803820133465
 30
0.0
 10
17438.43982775413
 20
-6891.643879023856
 30
0.0
 10
17550.23994860482
 20
-6889.648498665566
 30
0.0
 10
17885.58719772937
 20
-6883.964696988087
 30
0.0
 10
18109.08121197056
 20
-6880.578631988547
 30
0.0
 10
18448.42291467726
 20
-6876.244459022252
 30
0.0
 10
18564.32306616583
 20
-6874.907227215984
 30
0.0
 10
18721.11461970368
 20
-6873.316219685285
 30
0.0
 10
18762.02217028314
 20
-6872.921213600552
 30
0.0
 10
18843.8361199209
 20
-6872.172941705608
 30
0.0
 10
18884.74883778046
 20
-6871.819486895855
 30
0.0
 10
19007.50417944985
 20
-6870.81606719384
 30
0.0
 10
19089.36399142605
 20
-6870.223048426398
 30
0.0
 10
19335.01184835582
 20
-6868.630935442751
 30
0.0
 10
19498.86831475587
 20
-6867.81880691727
 30
0.0
 10
19872.78333860779
 20
-6866.28611796703
 30
0.0
 10
20082.89972813253
 20
-6865.655286859307
 30
0.0
 10
20293.16239649276
 20
-6865.024096879849
 30
0.0
  0
ARC
  5
46E6
330
18
100
AcDbEntity
  8
OBJECT
100
AcDbCircle
 10
17917.95055512955
 20
-6607.939331322049
 30
0.0
 40
14.0
100
AcDbArc
 50
180.0
 51
270.0
  0
LINE
  5
46E7
330
18
100
AcDbEntity
  8
OBJECT
100
AcDbLine
 10
17891.95055512954
 20
-6633.93933132205
 30
0.0
 11
17891.95055512954
 21
-6483.93933132205
 31
0.0
  0
LINE
  5
46E8
330
18
100
AcDbEntity
  8
OBJECT
100
AcDbLine
 10
17891.95055512954
 20
-6633.93933132205
 30
0.0
 11
17981.95055512955
 21
-6633.93933132205
 31
0.0
  0
LINE
  5
46E9
330
18
100
AcDbEntity
  8
OBJECT
100
AcDbLine
 10
17917.95055512955
 20
-6621.93933132205
 30
0.0
 11
17974.95055512955
 21
-6621.93933132205
 31
0.0
  0
LINE
  5
46EA
330
18
100
AcDbEntity
  8
OBJECT
100
AcDbLine
 10
17981.95055512955
 20
-6633.93933132205
 30
0.0
 11
17981.95055512955
 21
-6628.93933132205
 31
0.0
  0
ARC
  5
46EB
330
18
100
AcDbEntity
  8
OBJECT
100
AcDbCircle
 10
17974.95055512955
 20
-6628.93933132205
 30
0.0
 40
7.0
100
AcDbArc
 50
0.0
 51
90.0
  0
ARC
  5
46EC
330
18
100
AcDbEntity
  8
OBJECT
100
AcDbCircle
 10
17896.95055512955
 20
-6490.93933132205
 30
0.0
 40
7.0
100
AcDbArc
 50
0.0
 51
90.0
  0
LINE
  5
46ED
330
18
100
AcDbEntity
  8
OBJECT
100
AcDbLine
 10
17903.95055512955
 20
-6607.939331322049
 30
0.0
 11
17903.95055512955
 21
-6490.93933132205
 31
0.0
  0
LINE
  5
46EE
330
18
100
AcDbEntity
  8
OBJECT
100
AcDbLine
 10
17891.95055512954
 20
-6483.93933132205
 30
0.0
 11
17896.95055512955
 21
-6483.93933132205
 31
0.0
  0
LINE
  5
46EF
330
18
100
AcDbEntity
  8
OBJECT
100
AcDbLine
 10
17292.04001764797
 20
-6494.300171952294
 30
0.0
 11
17297.04001764797
 21
-6494.300171952294
 31
0.0
  0
LINE
  5
46F0
330
18
100
AcDbEntity
  8
OBJECT
100
AcDbLine
 10
17304.04001764797
 20
-6618.300171952295
 30
0.0
 11
17304.04001764797
 21
-6501.300171952294
 31
0.0
  0
ARC
  5
46F1
330
18
100
AcDbEntity
  8
OBJECT
100
AcDbCircle
 10
17297.04001764797
 20
-6501.300171952294
 30
0.0
 40
7.0
100
AcDbArc
 50
0.0
 51
90.0
  0
ARC
  5
46F2
330
18
100
AcDbEntity
  8
OBJECT
100
AcDbCircle
 10
17375.04001764797
 20
-6639.300171952294
 30
0.0
 40
7.0
100
AcDbArc
 50
0.0
 51
90.0
  0
LINE
  5
46F3
330
18
100
AcDbEntity
  8
OBJECT
100
AcDbLine
 10
17382.04001764797
 20
-6644.300171952294
 30
0.0
 11
17382.04001764797
 21
-6639.300171952294
 31
0.0
  0
LINE
  5
46F4
330
18
100
AcDbEntity
  8
OBJECT
100
AcDbLine
 10
17318.04001764797
 20
-6632.300171952294
 30
0.0
 11
17375.04001764797
 21
-6632.300171952294
 31
0.0
  0
LINE
  5
46F5
330
18
100
AcDbEntity
  8
OBJECT
100
AcDbLine
 10
17292.04001764797
 20
-6644.300171952294
 30
0.0
 11
17382.04001764797
 21
-6644.300171952294
 31
0.0
  0
LINE
  5
46F6
330
18
100
AcDbEntity
  8
OBJECT
100
AcDbLine
 10
17292.04001764797
 20
-6644.300171952294
 30
0.0
 11
17292.04001764797
 21
-6494.300171952294
 31
0.0
  0
ARC
  5
46F7
330
18
100
AcDbEntity
  8
OBJECT
100
AcDbCircle
 10
17318.04001764797
 20
-6618.300171952295
 30
0.0
 40
14.0
100
AcDbArc
 50
180.0
 51
270.0
  0
ARC
  5
46F8
330
18
100
AcDbEntity
  8
OBJECT
100
AcDbCircle
 10
16718.04001765447
 20
-6630.288205209224
 30
0.0
 40
14.0
100
AcDbArc
 50
180.0
 51
270.0
  0
LINE
  5
46F9
330
18
100
AcDbEntity
  8
OBJECT
100
AcDbLine
 10
16692.04001765447
 20
-6656.288205209225
 30
0.0
 11
16692.04001765447
 21
-6506.288205209225
 31
0.0
  0
LINE
  5
46FA
330
18
100
AcDbEntity
  8
OBJECT
100
AcDbLine
 10
16692.04001765447
 20
-6656.288205209225
 30
0.0
 11
16782.04001765447
 21
-6656.288205209225
 31
0.0
  0
LINE
  5
46FB
330
18
100
AcDbEntity
  8
OBJECT
100
AcDbLine
 10
16718.04001765447
 20
-6644.288205209225
 30
0.0
 11
16775.04001765447
 21
-6644.288205209225
 31
0.0
  0
LINE
  5
46FC
330
18
100
AcDbEntity
  8
OBJECT
100
AcDbLine
 10
16782.04001765447
 20
-6656.288205209225
 30
0.0
 11
16782.04001765447
 21
-6651.288205209225
 31
0.0
  0
ARC
  5
46FD
330
18
100
AcDbEntity
  8
OBJECT
100
AcDbCircle
 10
16775.04001765447
 20
-6651.288205209225
 30
0.0
 40
7.0
100
AcDbArc
 50
0.0
 51
90.0
  0
ARC
  5
46FE
330
18
100
AcDbEntity
  8
OBJECT
100
AcDbCircle
 10
16697.04001765447
 20
-6513.288205209224
 30
0.0
 40
7.0
100
AcDbArc
 50
0.0
 51
90.0
  0
LINE
  5
46FF
330
18
100
AcDbEntity
  8
OBJECT
100
AcDbLine
 10
16704.04001765447
 20
-6630.288205209224
 30
0.0
 11
16704.04001765447
 21
-6513.288205209224
 31
0.0
  0
LINE
  5
4700
330
18
100
AcDbEntity
  8
OBJECT
100
AcDbLine
 10
16692.04001765447
 20
-6506.288205209225
 30
0.0
 11
16697.04001765447
 21
-6506.288205209225
 31
0.0
  0
LINE
  5
470A
330
18
100
AcDbEntity
  8
OBJECT
100
AcDbLine
 10
15492.04001766746
 20
-6534.085062735567
 30
0.0
 11
15497.04001766746
 21
-6534.085062735567
 31
0.0
  0
LINE
  5
470B
330
18
100
AcDbEntity
  8
OBJECT
100
AcDbLine
 10
15504.04001766746
 20
-6658.085062735567
 30
0.0
 11
15504.04001766746
 21
-6541.085062735567
 31
0.0
  0
ARC
  5
470C
330
18
100
AcDbEntity
  8
OBJECT
100
AcDbCircle
 10
15497.04001766746
 20
-6541.085062735567
 30
0.0
 40
7.0
100
AcDbArc
 50
0.0
 51
90.0
  0
ARC
  5
470D
330
18
100
AcDbEntity
  8
OBJECT
100
AcDbCircle
 10
15575.04001766746
 20
-6679.085062735566
 30
0.0
 40
7.0
100
AcDbArc
 50
0.0
 51
90.0
  0
LINE
  5
470E
330
18
100
AcDbEntity
  8
OBJECT
100
AcDbLine
 10
15582.04001766746
 20
-6684.085062735566
 30
0.0
 11
15582.04001766746
 21
-6679.085062735566
 31
0.0
  0
LINE
  5
470F
330
18
100
AcDbEntity
  8
OBJECT
100
AcDbLine
 10
15518.04001766746
 20
-6672.085062735567
 30
0.0
 11
15575.04001766746
 21
-6672.085062735567
 31
0.0
  0
LINE
  5
4710
330
18
100
AcDbEntity
  8
OBJECT
100
AcDbLine
 10
15492.04001766746
 20
-6684.085062735566
 30
0.0
 11
15582.04001766746
 21
-6684.085062735566
 31
0.0
  0
LINE
  5
4711
330
18
100
AcDbEntity
  8
OBJECT
100
AcDbLine
 10
15492.04001766746
 20
-6684.085062735566
 30
0.0
 11
15492.04001766746
 21
-6534.085062735567
 31
0.0
  0
ARC
  5
4712
330
18
100
AcDbEntity
  8
OBJECT
100
AcDbCircle
 10
15518.04001766746
 20
-6658.085062735567
 30
0.0
 40
14.0
100
AcDbArc
 50
180.0
 51
270.0
  0
ARC
  5
4713
330
18
100
AcDbEntity
  8
OBJECT
100
AcDbCircle
 10
14917.95040295202
 20
-6673.338050754307
 30
0.0
 40
14.0
100
AcDbArc
 50
180.0
 51
270.0
  0
LINE
  5
4714
330
18
100
AcDbEntity
  8
OBJECT
100
AcDbLine
 10
14891.95040295202
 20
-6699.338050754306
 30
0.0
 11
14891.95040295202
 21
-6549.338050754307
 31
0.0
  0
LINE
  5
4715
330
18
100
AcDbEntity
  8
OBJECT
100
AcDbLine
 10
14891.95040295202
 20
-6699.338050754306
 30
0.0
 11
14981.95040295202
 21
-6699.338050754306
 31
0.0
  0
LINE
  5
4716
330
18
100
AcDbEntity
  8
OBJECT
100
AcDbLine
 10
14917.95040295202
 20
-6687.338050754307
 30
0.0
 11
14974.95040295202
 21
-6687.338050754307
 31
0.0
  0
LINE
  5
4717
330
18
100
AcDbEntity
  8
OBJECT
100
AcDbLine
 10
14981.95040295202
 20
-6699.338050754306
 30
0.0
 11
14981.95040295202
 21
-6694.338050754307
 31
0.0
  0
ARC
  5
4718
330
18
100
AcDbEntity
  8
OBJECT
100
AcDbCircle
 10
14974.95040295202
 20
-6694.338050754307
 30
0.0
 40
7.0
100
AcDbArc
 50
0.0
 51
90.0
  0
ARC
  5
4719
330
18
100
AcDbEntity
  8
OBJECT
100
AcDbCircle
 10
14896.95040295202
 20
-6556.338050754307
 30
0.0
 40
7.0
100
AcDbArc
 50
0.0
 51
90.0
  0
LINE
  5
471A
330
18
100
AcDbEntity
  8
OBJECT
100
AcDbLine
 10
14903.95040295202
 20
-6673.338050754307
 30
0.0
 11
14903.95040295202
 21
-6556.338050754307
 31
0.0
  0
LINE
  5
471B
330
18
100
AcDbEntity
  8
OBJECT
100
AcDbLine
 10
14891.95040295202
 20
-6549.338050754307
 30
0.0
 11
14896.95040295202
 21
-6549.338050754307
 31
0.0
  0
LINE
  5
4722
330
18
100
AcDbEntity
  8
OBJECT
100
AcDbLine
 10
14416.95127398415
 20
-7719.988866967668
 30
0.0
 11
14414.95127398418
 21
-7719.988857660489
 31
0.0
  0
LINE
  5
4723
330
18
100
AcDbEntity
  8
OBJECT
100
AcDbLine
 10
14416.95162300339
 20
-7644.988866968481
 30
0.0
 11
14291.95162300474
 21
-7644.988285269757
 31
0.0
  0
LINE
  5
4724
330
18
100
AcDbEntity
  8
OBJECT
100
AcDbLine
 10
14416.95162300339
 20
-7644.988866968481
 30
0.0
 11
14416.95127398415
 21
-7719.988866967668
 31
0.0
  0
LINE
  5
4725
330
18
100
AcDbEntity
  8
OBJECT
100
AcDbLine
 10
14291.95162300475
 20
-7644.988285269757
 30
0.0
 11
14291.95161369757
 21
-7646.988285269735
 31
0.0
  0
LINE
  5
4726
330
18
100
AcDbEntity
  8
OBJECT
100
AcDbLine
 10
14402.45159508201
 20
-7650.988799491364
 30
0.0
 11
14295.95159508316
 21
-7650.98830388405
 31
0.0
  0
LINE
  5
4727
330
18
100
AcDbEntity
  8
OBJECT
100
AcDbLine
 10
14410.9515555264
 20
-7659.488839046786
 30
0.0
 11
14410.95129259858
 21
-7715.988839046173
 31
0.0
  0
ARC
  5
4728
330
18
100
AcDbEntity
  8
OBJECT
100
AcDbCircle
 10
14414.95129259854
 20
-7715.988857660533
 30
0.0
 40
4.0
100
AcDbArc
 50
179.9997333689454
 51
269.9997333689454
  0
ARC
  5
4729
330
18
100
AcDbEntity
  8
OBJECT
100
AcDbCircle
 10
14295.95161369752
 20
-7646.988303884096
 30
0.0
 40
4.0
100
AcDbArc
 50
179.9997333689454
 51
269.9997333689454
  0
ARC
  5
472A
330
18
100
AcDbEntity
  8
OBJECT
100
AcDbCircle
 10
14402.4515555265
 20
-7659.488799491274
 30
0.0
 40
8.5
100
AcDbArc
 50
359.9997333689454
 51
89.99973336894539
  0
LINE
  5
472C
330
18
100
AcDbEntity
  8
OBJECT
100
AcDbLine
 10
14416.95378692264
 20
-7179.988866973515
 30
0.0
 11
14414.95378692266
 21
-7179.988857666336
 31
0.0
  0
LINE
  5
472D
330
18
100
AcDbEntity
  8
OBJECT
100
AcDbLine
 10
14416.95413594187
 20
-7104.988866974328
 30
0.0
 11
14416.95378692264
 21
-7179.988866973515
 31
0.0
  0
LINE
  5
472E
330
18
100
AcDbEntity
  8
OBJECT
100
AcDbLine
 10
14410.95406846488
 20
-7119.488839052632
 30
0.0
 11
14410.95380553706
 21
-7175.988839052021
 31
0.0
  0
ARC
  5
472F
330
18
100
AcDbEntity
  8
OBJECT
100
AcDbCircle
 10
14414.95380553702
 20
-7175.988857666381
 30
0.0
 40
4.0
100
AcDbArc
 50
179.9997333689454
 51
269.9997333689454
  0
ARC
  5
4730
330
18
100
AcDbEntity
  8
OBJECT
100
AcDbCircle
 10
14402.45406846498
 20
-7119.488799497121
 30
0.0
 40
8.5
100
AcDbArc
 50
359.9997333689454
 51
89.99973336894539
  0
ARC
  5
4731
330
18
100
AcDbEntity
  8
OBJECT
100
AcDbCircle
 10
14295.95412663601
 20
-7106.988303889943
 30
0.0
 40
4.0
100
AcDbArc
 50
179.9997333689454
 51
269.9997333689454
  0
LINE
  5
4732
330
18
100
AcDbEntity
  8
OBJECT
100
AcDbLine
 10
14291.95413594323
 20
-7104.988285275604
 30
0.0
 11
14291.95412663605
 21
-7106.988285275583
 31
0.0
  0
LINE
  5
4733
330
18
100
AcDbEntity
  8
OBJECT
100
AcDbLine
 10
14416.95413594187
 20
-7104.988866974328
 30
0.0
 11
14291.95413594323
 21
-7104.988285275604
 31
0.0
  0
LINE
  5
4734
330
18
100
AcDbEntity
  8
OBJECT
100
AcDbLine
 10
14402.45410802049
 20
-7110.988799497211
 30
0.0
 11
14295.95410802165
 21
-7110.988303889897
 31
0.0
  0
LINE
  5
4735
330
18
100
AcDbEntity
  8
OBJECT
100
AcDbLine
 10
14416.94876104567
 20
-8259.988866961821
 30
0.0
 11
14414.94876104569
 21
-8259.988857654642
 31
0.0
  0
LINE
  5
4736
330
18
100
AcDbEntity
  8
OBJECT
100
AcDbLine
 10
14416.9491100649
 20
-8184.988866962633
 30
0.0
 11
14416.94876104567
 21
-8259.988866961821
 31
0.0
  0
LINE
  5
4737
330
18
100
AcDbEntity
  8
OBJECT
100
AcDbLine
 10
14410.94904258792
 20
-8199.488839040938
 30
0.0
 11
14410.94877966009
 21
-8255.988839040325
 31
0.0
  0
ARC
  5
4738
330
18
100
AcDbEntity
  8
OBJECT
100
AcDbCircle
 10
14414.94877966005
 20
-8255.988857654687
 30
0.0
 40
4.0
100
AcDbArc
 50
179.9997333689454
 51
269.9997333689454
  0
ARC
  5
4739
330
18
100
AcDbEntity
  8
OBJECT
100
AcDbCircle
 10
14402.44904258801
 20
-8199.488799485425
 30
0.0
 40
8.5
100
AcDbArc
 50
359.9997333689454
 51
89.99973336894539
  0
ARC
  5
473A
330
18
100
AcDbEntity
  8
OBJECT
100
AcDbCircle
 10
14295.94910075904
 20
-8186.98830387825
 30
0.0
 40
4.0
100
AcDbArc
 50
179.9997333689454
 51
269.9997333689454
  0
LINE
  5
473B
330
18
100
AcDbEntity
  8
OBJECT
100
AcDbLine
 10
14291.94911006626
 20
-8184.98828526391
 30
0.0
 11
14291.94910075908
 21
-8186.988285263888
 31
0.0
  0
LINE
  5
473C
330
18
100
AcDbEntity
  8
OBJECT
100
AcDbLine
 10
14416.9491100649
 20
-8184.988866962633
 30
0.0
 11
14291.94911006626
 21
-8184.98828526391
 31
0.0
  0
LINE
  5
473D
330
18
100
AcDbEntity
  8
OBJECT
100
AcDbLine
 10
14402.44908214352
 20
-8190.988799485516
 30
0.0
 11
14295.94908214468
 21
-8190.988303878203
 31
0.0
  0
LINE
  5
473E
330
18
100
AcDbEntity
  8
OBJECT
100
AcDbLine
 10
14402.44656920504
 20
-8730.988799479669
 30
0.0
 11
14295.94656920619
 21
-8730.988303872356
 31
0.0
  0
LINE
  5
473F
330
18
100
AcDbEntity
  8
OBJECT
100
AcDbLine
 10
14416.94659712642
 20
-8724.988866956786
 30
0.0
 11
14291.94659712777
 21
-8724.988285258062
 31
0.0
  0
LINE
  5
4740
330
18
100
AcDbEntity
  8
OBJECT
100
AcDbLine
 10
14291.94659712777
 20
-8724.988285258062
 30
0.0
 11
14291.94658782059
 21
-8726.988285258041
 31
0.0
  0
ARC
  5
4741
330
18
100
AcDbEntity
  8
OBJECT
100
AcDbCircle
 10
14295.94658782055
 20
-8726.988303872401
 30
0.0
 40
4.0
100
AcDbArc
 50
179.9997333689454
 51
269.9997333689454
  0
ARC
  5
4742
330
18
100
AcDbEntity
  8
OBJECT
100
AcDbCircle
 10
14402.44652964953
 20
-8739.488799479579
 30
0.0
 40
8.5
100
AcDbArc
 50
359.9997333689454
 51
89.99973336894539
  0
ARC
  5
4743
330
18
100
AcDbEntity
  8
OBJECT
100
AcDbCircle
 10
14414.94626672157
 20
-8795.988857648842
 30
0.0
 40
4.0
100
AcDbArc
 50
179.9997333689454
 51
269.9997333689454
  0
LINE
  5
4744
330
18
100
AcDbEntity
  8
OBJECT
100
AcDbLine
 10
14410.94652964943
 20
-8739.488839035089
 30
0.0
 11
14410.94626672161
 21
-8795.988839034478
 31
0.0
  0
LINE
  5
4745
330
18
100
AcDbEntity
  8
OBJECT
100
AcDbLine
 10
14416.94659712642
 20
-8724.988866956786
 30
0.0
 11
14416.94624810718
 21
-8799.988866955974
 31
0.0
  0
LINE
  5
4746
330
18
100
AcDbEntity
  8
OBJECT
100
AcDbLine
 10
14416.94624810718
 20
-8799.988866955974
 30
0.0
 11
14414.9462481072
 21
-8799.988857648793
 31
0.0
  0
SPLINE
  5
4747
330
18
100
AcDbEntity
  8
OBJECT
  6
Continuous
 48
100.0
100
AcDbSpline
210
0.0
220
0.0
230
1.0
 70
     8
 71
     3
 72
    34
 73
    30
 74
     0
 42
0.0000000001
 43
0.0000000001
 40
0.0
 40
0.0
 40
0.0
 40
0.0
 40
654.1248432229147
 40
654.1248432229147
 40
1277.975789671322
 40
1277.975789671322
 40
1773.157989146655
 40
1773.157989146655
 40
2268.340188621988
 40
2268.340188621988
 40
2735.920300820602
 40
2735.920300820602
 40
3114.405129244697
 40
3114.405129244697
 40
3492.889957668793
 40
3492.889957668793
 40
4249.859614516983
 40
4249.859614516983
 40
4456.648489110611
 40
4456.648489110611
 40
4587.456573148027
 40
4587.456573148027
 40
4718.264657185442
 40
4718.264657185442
 40
4979.880825260271
 40
4979.880825260271
 40
5503.113161409931
 40
5503.113161409931
 40
6001.025369264581
 40
6001.025369264581
 40
6001.025369264581
 40
6001.025369264581
 10
14302.66032143838
 20
-6973.848037333484
 30
0.0
 10
14520.62739967487
 20
-6968.138457052269
 30
0.0
 10
14738.54062712864
 20
-6962.430298048364
 30
0.0
 10
15164.18060027419
 20
-6951.449090518902
 30
0.0
 10
15371.91202764452
 20
-6946.168130422766
 30
0.0
 10
15744.4492469326
 20
-6936.971875764315
 30
0.0
 10
15909.26944640383
 20
-6933.001682877115
 30
0.0
 10
16238.88669841611
 20
-6925.315860389945
 30
0.0
 10
16403.68000582251
 20
-6921.598630631873
 30
0.0
 10
16724.05178571391
 20
-6914.658587812673
 30
0.0
 10
16879.63148729281
 20
-6911.419785252288
 30
0.0
 10
17161.12389626235
 20
-6905.83112365516
 30
0.0
 10
17287.04420283959
 20
-6903.428620185684
 30
0.0
 10
17538.84204821721
 20
-6898.844703384455
 30
0.0
 10
17664.71808256933
 20
-6896.665287159867
 30
0.0
 10
18042.2770007063
 20
-6890.533998691735
 30
0.0
 10
18293.89069845155
 20
-6886.989089092904
 30
0.0
 10
18614.12098823643
 20
-6883.401569764782
 30
0.0
 10
18682.8240359656
 20
-6882.68607881351
 30
0.0
 10
18794.97502191041
 20
-6881.61270938449
 30
0.0
 10
18838.4276256897
 20
-6881.220460681126
 30
0.0
 10
18925.35141243442
 20
-6880.480586170417
 30
0.0
 10
18968.81991876343
 20
-6880.132753755335
 30
0.0
 10
19099.24522765513
 20
-6879.149455374419
 30
0.0
 10
19186.22181939791
 20
-6878.574188735026
 30
0.0
 10
19447.23035570105
 20
-6877.040216643173
 30
0.0
 10
19621.34105921338
 20
-6876.273330456839
 30
0.0
 10
19961.33979295983
 20
-6875.020290310903
 30
0.0
 10
20127.21800850852
 20
-6874.522287843255
 30
0.0
 10
20293.18941357697
 20
-6874.02405632849
 30
0.0
  0
LINE
  5
4748
330
18
100
AcDbEntity
  8
OBJECT
  6
Continuous
 48
100.0
100
AcDbLine
 10
14302.4246500591
 20
-6964.851123473664
 30
0.0
 11
14291.94943613675
 21
-6964.851099099991
 31
0.0
  0
LINE
  5
4749
330
18
100
AcDbEntity
  8
OBJECT
  6
Continuous
 48
100.0
100
AcDbLine
 10
14302.66032143838
 20
-6973.848037333484
 30
0.0
 11
14291.94941520278
 21
-6973.848012411401
 31
0.0
  0
LINE
  5
474A
330
18
100
AcDbEntity
  8
OBJECT
  6
Continuous
 48
100.0
100
AcDbLine
 10
16161.94408418423
 20
-9264.992636358668
 30
0.0
 11
16161.94952393007
 21
-6927.121836095723
 31
0.0
  0
LINE
  5
4753
330
18
100
AcDbEntity
  8
OBJECT
  6
Continuous
 48
100.0
100
AcDbLine
 10
33954.415254274
 20
-12013.57836445446
 30
0.0
 11
35291.9113293054
 21
-12013.59081277063
 31
0.0
  0
LINE
  5
4754
330
18
100
AcDbEntity
  8
OBJECT
  6
Continuous
 48
100.0
100
AcDbLine
 10
32954.41525431731
 20
-12013.56905727488
 30
0.0
 11
33629.41525428015
 21
-12013.57533962109
 31
0.0
  0
LINE
  5
4755
330
18
100
AcDbEntity
  8
OBJECT
  6
Continuous
 48
100.0
100
AcDbLine
 10
6954.415254813013
 20
-12013.32707060562
 30
0.0
 11
7629.415254775857
 21
-12013.33335295184
 31
0.0
  0
LINE
  5
4756
330
18
100
AcDbEntity
  8
OBJECT
  6
Continuous
 48
100.0
100
AcDbLine
 10
7954.415254769698
 20
-12013.33637778521
 30
0.0
 11
9056.913124513041
 21
-12013.34663893088
 31
0.0
  0
LINE
  5
4757
330
18
100
AcDbEntity
  8
OBJECT
  6
Continuous
 48
100.0
100
AcDbLine
 10
5631.935719338882
 20
-11733.76803484085
 30
0.0
 11
5851.935717488631
 21
-11733.77008242034
 31
0.0
  0
CIRCLE
  5
4758
330
18
100
AcDbEntity
  8
OBJECT
  6
Continuous
 48
100.0
100
AcDbCircle
 10
5741.935718413756
 20
-11733.7690586306
 30
0.0
 40
85.54050924473886
  0
CIRCLE
  5
4759
330
18
100
AcDbEntity
  8
OBJECT
  6
Continuous
 48
100.0
100
AcDbCircle
 10
5741.935718413756
 20
-11733.7690586306
 30
0.0
 40
70.54050924473886
  0
LINE
  5
475A
330
18
100
AcDbEntity
  8
OBJECT
  6
Continuous
 48
100.0
100
AcDbLine
 10
5741.935718413756
 20
-11733.7690586306
 30
0.0
 11
5741.93501463922
 21
-11834.59079947929
 31
0.0
  0
LINE
  5
475B
330
18
100
AcDbEntity
  8
OBJECT
  6
Continuous
 48
100.0
100
AcDbLine
 10
5741.935718413756
 20
-11733.7690586306
 30
0.0
 11
5741.936891371317
 21
-11632.94731778627
 31
0.0
  0
CIRCLE
  5
475C
330
18
100
AcDbEntity
  8
OBJECT
  6
Continuous
 48
100.0
100
AcDbCircle
 10
34841.91743379274
 20
-11733.94883922613
 30
0.0
 40
70.54050924473886
  0
LINE
  5
475D
330
18
100
AcDbEntity
  8
OBJECT
  6
Continuous
 48
100.0
100
AcDbLine
 10
34951.91743287187
 20
-11733.94917460324
 30
0.0
 11
34731.91743471362
 21
-11733.94850384902
 31
0.0
  0
CIRCLE
  5
475E
330
18
100
AcDbEntity
  8
OBJECT
  6
Continuous
 48
100.0
100
AcDbCircle
 10
34841.91743379274
 20
-11733.94883922613
 30
0.0
 40
85.54050924473886
  0
LINE
  5
475F
330
18
100
AcDbEntity
  8
OBJECT
  6
Continuous
 48
100.0
100
AcDbLine
 10
34841.91743379274
 20
-11733.94883922613
 30
0.0
 11
34841.91689180755
 21
-11834.77058007583
 31
0.0
  0
LINE
  5
4760
330
18
100
AcDbEntity
  8
OBJECT
  6
Continuous
 48
100.0
100
AcDbLine
 10
34841.91743379274
 20
-11733.94883922613
 30
0.0
 11
34841.9175065949
 21
-11633.12709837501
 31
0.0
  0
LINE
  5
4761
330
18
100
AcDbEntity
  8
OBJECT
  6
CENTER2
 48
0.009
100
AcDbLine
 10
31452.1499837793
 20
-20681.5154081769
 30
0.0
 11
30332.1619818651
 21
-20681.50713939617
 31
0.0
  0
LINE
  5
4762
330
18
100
AcDbEntity
  8
OBJECT
  6
CENTER2
 48
0.009
100
AcDbLine
 10
30892.16189317432
 20
-20196.51324314033
 30
0.0
 11
30892.14767691118
 21
-21166.51324293732
 31
0.0
  0
ARC
  5
4763
330
18
100
AcDbEntity
  8
OBJECT
  6
Continuous
 48
100.0
100
AcDbCircle
 10
30817.14758830391
 20
-20681.50971951782
 30
0.0
 40
309.9928032175755
100
AcDbArc
 50
89.99734789569361
 51
270.0006197864954
  0
ARC
  5
4764
330
18
100
AcDbEntity
  8
OBJECT
  6
HIDDEN2
 48
0.02
100
AcDbCircle
 10
30817.16198187874
 20
-20681.50687178189
 30
0.0
 40
225.0
100
AcDbArc
 50
89.99960005341787
 51
269.9996000534179
  0
LINE
  5
4765
330
18
100
AcDbEntity
  8
OBJECT
  6
HIDDEN2
 48
0.02
100
AcDbLine
 10
30817.1635524653
 20
-20456.50687178737
 30
0.0
 11
30967.16355243921
 21
-20456.51191812547
 31
0.0
  0
LINE
  5
4766
330
18
100
AcDbEntity
  8
OBJECT
  6
Continuous
 48
100.0
100
AcDbLine
 10
30817.16193723598
 20
-20371.51691663233
 30
0.0
 11
30967.15671939328
 21
-20371.51911494707
 31
0.0
  0
ARC
  5
4767
330
18
100
AcDbEntity
  8
OBJECT
  6
HIDDEN2
 48
0.02
100
AcDbCircle
 10
30967.16198185265
 20
-20681.51191811998
 30
0.0
 40
225.0
100
AcDbArc
 50
269.999600053418
 51
89.99960005341794
  0
ARC
  5
4768
330
18
100
AcDbEntity
  8
OBJECT
  6
Continuous
 48
100.0
100
AcDbCircle
 10
30967.16198185266
 20
-20681.51191811998
 30
0.0
 40
309.9928032175755
100
AcDbArc
 50
269.9977007663327
 51
90.00097265713447
  0
LINE
  5
4769
330
18
100
AcDbEntity
  8
OBJECT
  6
HIDDEN2
 48
0.02
100
AcDbLine
 10
30967.16041126609
 20
-20906.5119181145
 30
0.0
 11
30817.16041129218
 21
-20906.50687177641
 31
0.0
  0
LINE
  5
476A
330
18
100
AcDbEntity
  8
OBJECT
  6
Continuous
 48
100.0
100
AcDbLine
 10
30817.15094159371
 20
-20991.50252271726
 30
0.0
 11
30967.14954209015
 21
-20991.50472108795
 31
0.0
  0
MTEXT
  5
476B
330
18
100
AcDbEntity
  8
OBJECT
  6
Continuous
 48
100.0
100
AcDbMText
 10
31153.23009530155
 20
-21034.98914581853
 30
0.0
 40
180.0
 41
267.0601
 71
     1
 72
     5
  1
H
210
0.0
220
0.0
230
-1.0
 11
-0.9999999995704067
 21
0.0000293118827591
 31
0.0
 73
     1
 44
1.0
  0
MTEXT
  5
476C
330
18
100
AcDbEntity
  8
OBJECT
  6
Continuous
 48
100.0
100
AcDbMText
 10
30631.06432278909
 20
-21034.98149298757
 30
0.0
 40
180.0
 41
267.0601
 71
     1
 72
     5
  1
M
 73
     1
 44
1.0
  0
ARC
  5
476D
330
18
100
AcDbEntity
  8
OBJECT
  6
Continuous
 48
100.0
100
AcDbCircle
 10
31617.15556093892
 20
-20681.51645532521
 30
0.0
 40
309.9928032175755
100
AcDbArc
 50
89.9982274497013
 51
270.0014993405031
  0
ARC
  5
476E
330
18
100
AcDbEntity
  8
OBJECT
  6
HIDDEN2
 48
0.02
100
AcDbCircle
 10
31617.15556093893
 20
-20681.51645532521
 30
0.0
 40
225.0
100
AcDbArc
 50
89.99960005341785
 51
269.9996000534178
  0
ARC
  5
476F
330
18
100
AcDbEntity
  8
OBJECT
  6
HIDDEN2
 48
0.02
100
AcDbCircle
 10
31767.15556096866
 20
-20681.51350310253
 30
0.0
 40
225.0
100
AcDbArc
 50
269.9996000534179
 51
89.9996000534179
  0
ARC
  5
4770
330
18
100
AcDbEntity
  8
OBJECT
  6
Continuous
 48
100.0
100
AcDbCircle
 10
31767.16995450374
 20
-20681.5163510394
 30
0.0
 40
309.9928032175755
100
AcDbArc
 50
269.9985803203404
 51
90.00185221114216
  0
LINE
  5
4771
330
18
100
AcDbEntity
  8
OBJECT
  6
CENTER2
 48
0.009
100
AcDbLine
 10
31132.16755901082
 20
-20681.51317457648
 30
0.0
 11
32252.15556093131
 21
-20681.52054168995
 31
0.0
  0
LINE
  5
4772
330
18
100
AcDbEntity
  8
OBJECT
  6
Continuous
 48
100.0
100
AcDbLine
 10
31767.1622734759
 20
-20991.50915416181
 30
0.0
 11
31617.16367296339
 21
-20991.50925843664
 31
0.0
  0
LINE
  5
4773
330
18
100
AcDbEntity
  8
OBJECT
  6
HIDDEN2
 48
0.02
100
AcDbLine
 10
31617.15399035237
 20
-20906.51645531973
 30
0.0
 11
31767.15399038211
 21
-20906.51350309704
 31
0.0
  0
LINE
  5
4774
330
18
100
AcDbEntity
  8
OBJECT
  6
Continuous
 48
100.0
100
AcDbLine
 10
31767.1599333097
 20
-20371.5235479838
 30
0.0
 11
31617.16515113632
 21
-20371.52365225598
 31
0.0
  0
LINE
  5
4775
330
18
100
AcDbEntity
  8
OBJECT
  6
HIDDEN2
 48
0.02
100
AcDbLine
 10
31767.15713155521
 20
-20456.51350310801
 30
0.0
 11
31617.15713152548
 21
-20456.51645533069
 31
0.0
  0
LINE
  5
4776
330
18
100
AcDbEntity
  8
OBJECT
  6
CENTER2
 48
0.009
100
AcDbLine
 10
31692.16242056459
 20
-20196.51882745177
 30
0.0
 11
31692.16309488144
 21
-21166.51882735269
 31
0.0
  0
MTEXT
  5
4777
330
18
100
AcDbEntity
  8
OBJECT
  6
Continuous
 48
100.0
100
AcDbMText
 10
31431.07974075935
 20
-21034.98707740294
 30
0.0
 40
180.0
 41
267.0601
 71
     1
 72
     5
  1
M
 73
     1
 44
1.0
  0
MTEXT
  5
4778
330
18
100
AcDbEntity
  8
OBJECT
  6
Continuous
 48
100.0
100
AcDbMText
 10
31953.24551327181
 20
-21034.9947302339
 30
0.0
 40
180.0
 41
267.0601
 71
     1
 72
     5
  1
H
210
0.0
220
0.0
230
-1.0
 11
-0.9999999995704067
 21
0.0000293118827591
 31
0.0
 73
     1
 44
1.0
  0
LINE
  5
478F
330
18
100
AcDbEntity
  8
OBJECT
  6
Continuous
 48
100.0
100
AcDbLine
 10
32792.07974767687
 20
-31181.56822131722
 30
0.0
 11
33792.07974757476
 21
-31181.58069126403
 31
0.0
  0
LINE
  5
4790
330
18
100
AcDbEntity
  8
OBJECT
  6
Continuous
 48
100.0
100
AcDbLine
 10
32592.08348867645
 20
-30881.56572735119
 30
0.0
 11
33992.08255785993
 21
-30881.58318526511
 31
0.0
  0
LINE
  5
4791
330
18
100
AcDbEntity
  8
OBJECT
  6
Continuous
 48
100.0
100
AcDbLine
 10
32492.0722657321
 20
-31781.56448028653
 30
0.0
 11
34092.07505777296
 21
-31781.58443223624
 31
0.0
  0
LINE
  5
4792
330
18
100
AcDbEntity
  8
OBJECT
  6
Continuous
 48
100.0
100
AcDbLine
 10
32492.07288922944
 20
-31731.56448029042
 30
0.0
 11
34092.07568127029
 21
-31731.58443224013
 31
0.0
  0
ELLIPSE
  5
4793
330
18
100
AcDbEntity
  8
OBJECT
  6
Continuous
 48
100.0
100
AcDbEllipse
 10
32492.07257748077
 20
-31756.56448028848
 30
0.0
 11
-68.21743512415284
 21
0.0008506677899601
 31
0.0
210
0.0
220
0.0
230
-1.0
 40
0.3664752266419262
 41
1.570796326794896
 42
4.712388980384689
  0
ARC
  5
4794
330
18
100
AcDbEntity
  8
OBJECT
  6
Continuous
 48
100.0
100
AcDbCircle
 10
32592.08224168177
 20
-30981.56572734341
 30
0.0
 40
100.0
100
AcDbArc
 50
89.99928552467713
 51
179.9992855246771
  0
LINE
  5
4796
330
18
100
AcDbEntity
  8
OBJECT
  6
Continuous
 48
100.0
100
AcDbLine
 10
32492.08224168954
 20
-30981.56448034873
 30
0.0
 11
32492.0722657321
 21
-31781.56448028653
 31
0.0
  0
LINE
  5
4798
330
18
100
AcDbEntity
  8
OBJECT
  6
Continuous
 48
100.0
100
AcDbLine
 10
32792.07974767687
 20
-31181.56822131722
 30
0.0
 11
32792.0764731036
 21
-31444.16543297341
 31
0.0
  0
CIRCLE
  5
4799
330
18
100
AcDbEntity
  8
OBJECT
  6
Continuous
 48
100.0
100
AcDbCircle
 10
32792.07974767687
 20
-31181.56822131722
 30
0.0
 40
182.5
  0
CIRCLE
  5
479A
330
18
100
AcDbEntity
  8
OBJECT
  6
Continuous
 48
100.0
100
AcDbCircle
 10
32792.07974767687
 20
-31181.56822131722
 30
0.0
 40
162.5000000000033
  0
LINE
  5
479B
330
18
100
AcDbEntity
  8
OBJECT
  6
Continuous
 48
100.0
100
AcDbLine
 10
32792.07974768739
 20
-31181.56698759037
 30
0.0
 11
32792.08095185101
 21
-30918.96977591653
 31
0.0
  0
ELLIPSE
  5
479C
330
18
100
AcDbEntity
  8
OBJECT
  6
Continuous
 48
100.0
100
AcDbEllipse
 10
34092.07536952162
 20
-31756.58443223819
 30
0.0
 11
68.21743512415284
 21
-0.0008506677849966
 31
0.0
210
0.0
220
0.0
230
1.0
 40
0.3664752266419262
 41
1.570796326794896
 42
4.712388980384689
  0
ARC
  5
479D
330
18
100
AcDbEntity
  8
OBJECT
  6
Continuous
 48
100.0
100
AcDbCircle
 10
33992.08131086526
 20
-30981.58318525734
 30
0.0
 40
100.0
100
AcDbArc
 50
359.999552155732
 51
89.99928552467713
  0
LINE
  5
479E
330
18
100
AcDbEntity
  8
OBJECT
  6
Continuous
 48
100.0
100
AcDbLine
 10
33792.08253976538
 20
-31181.58060454701
 30
0.0
 11
33792.07926519211
 21
-31444.1778162032
 31
0.0
  0
CIRCLE
  5
479F
330
18
100
AcDbEntity
  8
OBJECT
  6
Continuous
 48
100.0
100
AcDbCircle
 10
33792.08253976433
 20
-31181.58069129881
 30
0.0
 40
162.5000000000033
  0
CIRCLE
  5
47A0
330
18
100
AcDbEntity
  8
OBJECT
  6
Continuous
 48
100.0
100
AcDbCircle
 10
33792.08253976433
 20
-31181.58069129881
 30
0.0
 40
182.5
  0
LINE
  5
47A1
330
18
100
AcDbEntity
  8
OBJECT
  6
Continuous
 48
100.0
100
AcDbLine
 10
33792.08253977589
 20
-31181.57937082016
 30
0.0
 11
33792.08374393952
 21
-30918.98215914631
 31
0.0
  0
LINE
  5
47A2
330
18
100
AcDbEntity
  8
OBJECT
  6
Continuous
 48
100.0
100
AcDbLine
 10
34092.07505777296
 20
-31781.58443223624
 30
0.0
 11
34092.08131086219
 21
-30981.58396689304
 31
0.0
  0
LINE
  5
47A3
330
18
100
AcDbEntity
  8
OBJECT
  6
Continuous
 48
100.0
100
AcDbLine
 10
20792.08197147658
 20
-31181.47442505951
 30
0.0
 11
21792.08197137447
 21
-31181.48689500632
 31
0.0
  0
LINE
  5
47A4
330
18
100
AcDbEntity
  8
OBJECT
  6
Continuous
 48
100.0
100
AcDbLine
 10
20592.08571247617
 20
-30881.47193109347
 30
0.0
 11
21992.08478165965
 21
-30881.4893890074
 31
0.0
  0
LINE
  5
47A5
330
18
100
AcDbEntity
  8
OBJECT
  6
Continuous
 48
100.0
100
AcDbLine
 10
20492.07448953182
 20
-31781.47068402882
 30
0.0
 11
22092.07728157267
 21
-31781.49063597853
 31
0.0
  0
LINE
  5
47A6
330
18
100
AcDbEntity
  8
OBJECT
  6
Continuous
 48
100.0
100
AcDbLine
 10
20492.07511302916
 20
-31731.47068403271
 30
0.0
 11
22092.07790507001
 21
-31731.49063598242
 31
0.0
  0
CIRCLE
  5
47A7
330
18
100
AcDbEntity
  8
OBJECT
  6
Continuous
 48
100.0
100
AcDbCircle
 10
20792.08197147658
 20
-31181.47442505951
 30
0.0
 40
182.5
  0
CIRCLE
  5
47A8
330
18
100
AcDbEntity
  8
OBJECT
  6
Continuous
 48
100.0
100
AcDbCircle
 10
20792.08197147658
 20
-31181.47442505951
 30
0.0
 40
162.5000000000033
  0
LINE
  5
47A9
330
18
100
AcDbEntity
  8
OBJECT
  6
Continuous
 48
100.0
100
AcDbLine
 10
20492.08446548926
 20
-30981.47068409102
 30
0.0
 11
20492.07448953182
 21
-31781.47068402882
 31
0.0
  0
LINE
  5
47AA
330
18
100
AcDbEntity
  8
OBJECT
  6
Continuous
 48
100.0
100
AcDbLine
 10
20792.08197147658
 20
-31181.47442505951
 30
0.0
 11
20792.07869690332
 21
-31444.0716367157
 31
0.0
  0
ARC
  5
47AB
330
18
100
AcDbEntity
  8
OBJECT
  6
Continuous
 48
100.0
100
AcDbCircle
 10
20592.08446548149
 20
-30981.4719310857
 30
0.0
 40
100.0
100
AcDbArc
 50
89.99928552467713
 51
179.9992855246771
  0
LINE
  5
47AC
330
18
100
AcDbEntity
  8
OBJECT
  6
Continuous
 48
100.0
100
AcDbLine
 10
20792.0819714871
 20
-31181.47319133266
 30
0.0
 11
20792.08317565072
 21
-30918.87597965881
 31
0.0
  0
ELLIPSE
  5
47AD
330
18
100
AcDbEntity
  8
OBJECT
  6
Continuous
 48
100.0
100
AcDbEllipse
 10
20492.07480128049
 20
-31756.47068403076
 30
0.0
 11
-68.21743512415284
 21
0.0008506677899601
 31
0.0
210
0.0
220
0.0
230
-1.0
 40
0.3664752266419262
 41
1.570796326794896
 42
4.712388980384689
  0
CIRCLE
  5
47AE
330
18
100
AcDbEntity
  8
OBJECT
  6
Continuous
 48
100.0
100
AcDbCircle
 10
21792.08476356404
 20
-31181.4868950411
 30
0.0
 40
162.5000000000033
  0
CIRCLE
  5
47AF
330
18
100
AcDbEntity
  8
OBJECT
  6
Continuous
 48
100.0
100
AcDbCircle
 10
21792.08476356404
 20
-31181.4868950411
 30
0.0
 40
182.5
  0
LINE
  5
47B0
330
18
100
AcDbEntity
  8
OBJECT
  6
Continuous
 48
100.0
100
AcDbLine
 10
21792.08476356509
 20
-31181.4868082893
 30
0.0
 11
21792.08148899183
 21
-31444.08401994549
 31
0.0
  0
LINE
  5
47B1
330
18
100
AcDbEntity
  8
OBJECT
  6
Continuous
 48
100.0
100
AcDbLine
 10
21792.08476357561
 20
-31181.48557456244
 30
0.0
 11
21792.08596773923
 21
-30918.8883628886
 31
0.0
  0
LINE
  5
47B2
330
18
100
AcDbEntity
  8
OBJECT
  6
Continuous
 48
100.0
100
AcDbLine
 10
22092.07728157267
 20
-31781.49063597853
 30
0.0
 11
22092.08353466191
 21
-30981.49017063533
 31
0.0
  0
ARC
  5
47B3
330
18
100
AcDbEntity
  8
OBJECT
  6
Continuous
 48
100.0
100
AcDbCircle
 10
21992.08353466497
 20
-30981.48938899962
 30
0.0
 40
100.0
100
AcDbArc
 50
359.999552155732
 51
89.99928552467713
  0
ELLIPSE
  5
47B4
330
18
100
AcDbEntity
  8
OBJECT
  6
Continuous
 48
100.0
100
AcDbEllipse
 10
22092.07759332134
 20
-31756.49063598048
 30
0.0
 11
68.21743512415284
 21
-0.0008506677849966
 31
0.0
210
0.0
220
0.0
230
1.0
 40
0.3664752266419262
 41
1.570796326794896
 42
4.712388980384689
  0
LINE
  5
47CD
330
18
100
AcDbEntity
  8
OBJECT
  6
Continuous
 48
100.0
100
AcDbLine
 10
6792.081971904249
 20
-31181.36499606134
 30
0.0
 11
7792.081971802139
 21
-31181.37746600814
 31
0.0
  0
LINE
  5
47CE
330
18
100
AcDbEntity
  8
OBJECT
  6
Continuous
 48
100.0
100
AcDbLine
 10
6492.074489959484
 20
-31781.36125503065
 30
0.0
 11
8092.077282000344
 21
-31781.38120698036
 31
0.0
  0
LINE
  5
47CF
330
18
100
AcDbEntity
  8
OBJECT
  6
Continuous
 48
100.0
100
AcDbLine
 10
6592.085712903841
 20
-30881.3625020953
 30
0.0
 11
7992.084782087315
 21
-30881.37996000922
 31
0.0
  0
LINE
  5
47D0
330
18
100
AcDbEntity
  8
OBJECT
  6
Continuous
 48
100.0
100
AcDbLine
 10
6492.075113456831
 20
-31731.36125503454
 30
0.0
 11
8092.077905497683
 21
-31731.38120698425
 31
0.0
  0
ARC
  5
47D1
330
18
100
AcDbEntity
  8
OBJECT
  6
Continuous
 48
100.0
100
AcDbCircle
 10
6592.084465909157
 20
-30981.36250208753
 30
0.0
 40
100.0
100
AcDbArc
 50
89.99928552467713
 51
179.9992855246771
  0
LINE
  5
47D2
330
18
100
AcDbEntity
  8
OBJECT
  6
Continuous
 48
100.0
100
AcDbLine
 10
6492.084465916931
 20
-30981.36125509284
 30
0.0
 11
6492.074489959484
 21
-31781.36125503065
 31
0.0
  0
ELLIPSE
  5
47D3
330
18
100
AcDbEntity
  8
OBJECT
  6
Continuous
 48
100.0
100
AcDbEllipse
 10
6492.074801708159
 20
-31756.36125503259
 30
0.0
 11
-68.21743512415284
 21
0.0008506677899601
 31
0.0
210
0.0
220
0.0
230
-1.0
 40
0.3664752266419262
 41
1.570796326794896
 42
4.712388980384689
  0
LINE
  5
47D4
330
18
100
AcDbEntity
  8
OBJECT
  6
Continuous
 48
100.0
100
AcDbLine
 10
6792.081971904249
 20
-31181.36499606134
 30
0.0
 11
6792.078697330987
 21
-31443.96220771752
 31
0.0
  0
CIRCLE
  5
47D5
330
18
100
AcDbEntity
  8
OBJECT
  6
Continuous
 48
100.0
100
AcDbCircle
 10
6792.081971904249
 20
-31181.36499606134
 30
0.0
 40
182.5
  0
CIRCLE
  5
47D6
330
18
100
AcDbEntity
  8
OBJECT
  6
Continuous
 48
100.0
100
AcDbCircle
 10
6792.081971904249
 20
-31181.36499606134
 30
0.0
 40
162.5000000000033
  0
LINE
  5
47D7
330
18
100
AcDbEntity
  8
OBJECT
  6
Continuous
 48
100.0
100
AcDbLine
 10
6792.081971914767
 20
-31181.36376233448
 30
0.0
 11
6792.083176078392
 21
-30918.76655066064
 31
0.0
  0
ELLIPSE
  5
47D8
330
18
100
AcDbEntity
  8
OBJECT
  6
Continuous
 48
100.0
100
AcDbEllipse
 10
8092.077593749012
 20
-31756.38120698231
 30
0.0
 11
68.21743512415284
 21
-0.0008506677849966
 31
0.0
210
0.0
220
0.0
230
1.0
 40
0.3664752266419262
 41
1.570796326794896
 42
4.712388980384689
  0
ARC
  5
47D9
330
18
100
AcDbEntity
  8
OBJECT
  6
Continuous
 48
100.0
100
AcDbCircle
 10
7992.083535092638
 20
-30981.37996000145
 30
0.0
 40
100.0
100
AcDbArc
 50
359.999552155732
 51
89.99928552467713
  0
CIRCLE
  5
47DA
330
18
100
AcDbEntity
  8
OBJECT
  6
Continuous
 48
100.0
100
AcDbCircle
 10
7792.084763991706
 20
-31181.37746604293
 30
0.0
 40
162.5000000000033
  0
LINE
  5
47DB
330
18
100
AcDbEntity
  8
OBJECT
  6
Continuous
 48
100.0
100
AcDbLine
 10
7792.084763992758
 20
-31181.37737929113
 30
0.0
 11
7792.081489419496
 21
-31443.97459094732
 31
0.0
  0
CIRCLE
  5
47DC
330
18
100
AcDbEntity
  8
OBJECT
  6
Continuous
 48
100.0
100
AcDbCircle
 10
7792.084763991706
 20
-31181.37746604293
 30
0.0
 40
182.5
  0
LINE
  5
47DD
330
18
100
AcDbEntity
  8
OBJECT
  6
Continuous
 48
100.0
100
AcDbLine
 10
7792.084764003277
 20
-31181.37614556427
 30
0.0
 11
7792.085968166903
 21
-30918.77893389043
 31
0.0
  0
LINE
  5
47DE
330
18
100
AcDbEntity
  8
OBJECT
  6
Continuous
 48
100.0
100
AcDbLine
 10
8092.077282000344
 20
-31781.38120698036
 30
0.0
 11
8092.083535089582
 21
-30981.38074163715
 31
0.0
  0
LINE
  5
47DF
330
18
100
AcDbEntity
  8
OBJECT
  6
Continuous
 48
100.0
100
AcDbLine
 10
5741.863519688784
 20
-25781.37117960332
 30
0.0
 11
5741.864280461726
 21
-25454.40942519913
 31
0.0
  0
LINE
  5
47E0
330
18
100
AcDbEntity
  8
OBJECT
  6
Continuous
 48
100.0
100
AcDbLine
 10
5671.293233330187
 20
-25517.32209806578
 30
0.0
 11
5671.29204310923
 21
-25678.19818559141
 31
0.0
  0
LINE
  5
47E1
330
18
100
AcDbEntity
  8
OBJECT
  6
Continuous
 48
100.0
100
AcDbLine
 10
5656.293233329775
 20
-25517.32209806578
 30
0.0
 11
5741.86413407684
 21
-25517.32209806578
 31
0.0
  0
LINE
  5
47E2
330
18
100
AcDbEntity
  8
OBJECT
  6
Continuous
 48
100.0
100
AcDbLine
 10
5656.293322110224
 20
-25505.32209806577
 30
0.0
 11
5741.864161998378
 21
-25505.32209806577
 31
0.0
  0
LINE
  5
47E3
330
18
100
AcDbEntity
  8
OBJECT
  6
Continuous
 48
100.0
100
AcDbLine
 10
5656.293322110224
 20
-25505.32209806577
 30
0.0
 11
5656.293233329775
 21
-25517.32209806578
 31
0.0
  0
LINE
  5
47E4
330
18
100
AcDbEntity
  8
OBJECT
  6
Continuous
 48
100.0
100
AcDbLine
 10
5812.435034822728
 20
-25517.3224264738
 30
0.0
 11
5812.435476392367
 21
-25678.19851400324
 31
0.0
  0
LINE
  5
47E5
330
18
100
AcDbEntity
  8
OBJECT
  6
Continuous
 48
100.0
100
AcDbLine
 10
5827.435034822977
 20
-25517.32249627765
 30
0.0
 11
5741.864134076839
 21
-25517.32209806578
 31
0.0
  0
LINE
  5
47E6
330
18
100
AcDbEntity
  8
OBJECT
  6
Continuous
 48
100.0
100
AcDbLine
 10
5827.435001885606
 20
-25505.32249627736
 30
0.0
 11
5741.864161998378
 21
-25505.32209806577
 31
0.0
  0
LINE
  5
47E7
330
18
100
AcDbEntity
  8
OBJECT
  6
Continuous
 48
100.0
100
AcDbLine
 10
5827.435001885606
 20
-25505.32249627736
 30
0.0
 11
5827.435034822977
 21
-25517.32249627765
 31
0.0
  0
LINE
  5
47E8
330
18
100
AcDbEntity
  8
OBJECT
  6
Continuous
 48
100.0
100
AcDbLine
 10
5827.430917516894
 20
-26057.38575362346
 30
0.0
 11
5741.860077633141
 21
-26057.38488566543
 31
0.0
  0
LINE
  5
47E9
330
18
100
AcDbEntity
  8
OBJECT
  6
Continuous
 48
100.0
100
AcDbLine
 10
5827.431128015165
 20
-26045.38575362497
 30
0.0
 11
5741.860227272503
 21
-26045.38488566632
 31
0.0
  0
LINE
  5
47EA
330
18
100
AcDbEntity
  8
OBJECT
  6
Continuous
 48
100.0
100
AcDbLine
 10
5671.289326533576
 20
-26045.38384144694
 30
0.0
 11
5671.290516754531
 21
-25884.5077539213
 31
0.0
  0
LINE
  5
47EB
330
18
100
AcDbEntity
  8
OBJECT
  6
Continuous
 48
100.0
100
AcDbLine
 10
5741.863519950505
 20
-25781.3358041486
 30
0.0
 11
5741.85944275482
 21
-26108.29755852825
 31
0.0
  0
LINE
  5
47EC
330
18
100
AcDbEntity
  8
OBJECT
  6
Continuous
 48
100.0
100
AcDbLine
 10
5656.289326534807
 20
-26045.38361949581
 30
0.0
 11
5741.860227272503
 21
-26045.38488566632
 31
0.0
  0
LINE
  5
47ED
330
18
100
AcDbEntity
  8
OBJECT
  6
Continuous
 48
100.0
100
AcDbLine
 10
5656.289237754354
 20
-26057.38361949581
 30
0.0
 11
5741.860077633141
 21
-26057.38488566543
 31
0.0
  0
LINE
  5
47EE
330
18
100
AcDbEntity
  8
OBJECT
  6
Continuous
 48
100.0
100
AcDbLine
 10
5656.289237754354
 20
-26057.38361949581
 30
0.0
 11
5656.289326534807
 21
-26045.38361949581
 31
0.0
  0
LINE
  5
47EF
330
18
100
AcDbEntity
  8
OBJECT
  6
Continuous
 48
100.0
100
AcDbLine
 10
5812.431128015525
 20
-26045.38560147769
 30
0.0
 11
5812.433950027076
 21
-25884.5095139724
 31
0.0
  0
LINE
  5
47F0
330
18
100
AcDbEntity
  8
OBJECT
  6
Continuous
 48
100.0
100
AcDbLine
 10
5827.430917516894
 20
-26057.38575362346
 30
0.0
 11
5827.431128015165
 21
-26045.38575362497
 31
0.0
  0
LINE
  5
47F1
330
18
100
AcDbEntity
  8
OBJECT
  6
Continuous
 48
100.0
100
AcDbLine
 10
34756.24798815326
 20
-25505.50121938714
 30
0.0
 11
34841.81882803887
 21
-25505.50187849419
 31
0.0
  0
LINE
  5
47F2
330
18
100
AcDbEntity
  8
OBJECT
  6
Continuous
 48
100.0
100
AcDbLine
 10
34756.24780694314
 20
-25517.50121938611
 30
0.0
 11
34841.81870768766
 21
-25517.50187849363
 31
0.0
  0
LINE
  5
47F3
330
18
100
AcDbEntity
  8
OBJECT
  6
Continuous
 48
100.0
100
AcDbLine
 10
34912.38960842893
 20
-25517.50275047209
 30
0.0
 11
34912.3888108549
 21
-25678.37883800015
 31
0.0
  0
LINE
  5
47F4
330
18
100
AcDbEntity
  8
OBJECT
  6
Continuous
 48
100.0
100
AcDbLine
 10
34841.81605946878
 20
-25781.5509600186
 30
0.0
 11
34841.81933865569
 21
-25454.58920562998
 31
0.0
  0
LINE
  5
47F5
330
18
100
AcDbEntity
  8
OBJECT
  6
Continuous
 48
100.0
100
AcDbLine
 10
34927.3896084282
 20
-25517.50293581303
 30
0.0
 11
34841.81870768766
 21
-25517.50187849363
 31
0.0
  0
LINE
  5
47F6
330
18
100
AcDbEntity
  8
OBJECT
  6
Continuous
 48
100.0
100
AcDbLine
 10
34927.3896679205
 20
-25505.50293581284
 30
0.0
 11
34841.81882803887
 21
-25505.5018784942
 31
0.0
  0
LINE
  5
47F7
330
18
100
AcDbEntity
  8
OBJECT
  6
Continuous
 48
100.0
100
AcDbLine
 10
34927.3896679205
 20
-25505.50293581284
 30
0.0
 11
34927.3896084282
 21
-25517.50293581303
 31
0.0
  0
LINE
  5
47F8
330
18
100
AcDbEntity
  8
OBJECT
  6
Continuous
 48
100.0
100
AcDbLine
 10
34771.2478069431
 20
-25517.5013349232
 30
0.0
 11
34771.24537757848
 21
-25678.37742243489
 31
0.0
  0
LINE
  5
47F9
330
18
100
AcDbEntity
  8
OBJECT
  6
Continuous
 48
100.0
100
AcDbLine
 10
34756.24798815326
 20
-25505.50121938714
 30
0.0
 11
34756.24780694314
 21
-25517.50121938611
 31
0.0
  0
LINE
  5
47FA
330
18
100
AcDbEntity
  8
OBJECT
  6
Continuous
 48
100.0
100
AcDbLine
 10
34756.24518896837
 20
-26045.56447674139
 30
0.0
 11
34841.81608971523
 21
-26045.56466610213
 31
0.0
  0
LINE
  5
47FB
330
18
100
AcDbEntity
  8
OBJECT
  6
Continuous
 48
100.0
100
AcDbLine
 10
34756.24525119389
 20
-26057.56447674157
 30
0.0
 11
34841.81609108183
 21
-26057.56466610218
 31
0.0
  0
LINE
  5
47FC
330
18
100
AcDbEntity
  8
OBJECT
  6
Continuous
 48
100.0
100
AcDbLine
 10
34927.38693096973
 20
-26057.5644572512
 30
0.0
 11
34927.38699046204
 21
-26045.56445725101
 31
0.0
  0
LINE
  5
47FD
330
18
100
AcDbEntity
  8
OBJECT
  6
Continuous
 48
100.0
100
AcDbLine
 10
34927.38693096973
 20
-26057.5644572512
 30
0.0
 11
34841.81609108183
 21
-26057.56466610217
 31
0.0
  0
LINE
  5
47FE
330
18
100
AcDbEntity
  8
OBJECT
  6
Continuous
 48
100.0
100
AcDbLine
 10
34927.38699046204
 20
-26045.56445725101
 30
0.0
 11
34841.81608971523
 21
-26045.56466610213
 31
0.0
  0
LINE
  5
47FF
330
18
100
AcDbEntity
  8
OBJECT
  6
Continuous
 48
100.0
100
AcDbLine
 10
34841.81605964416
 20
-25781.51558456388
 30
0.0
 11
34841.81609688
 21
-26108.47733896895
 31
0.0
  0
LINE
  5
4800
330
18
100
AcDbEntity
  8
OBJECT
  6
Continuous
 48
100.0
100
AcDbLine
 10
34912.38699046167
 20
-26045.5644938612
 30
0.0
 11
34912.3877880357
 21
-25884.68840633315
 31
0.0
  0
LINE
  5
4801
330
18
100
AcDbEntity
  8
OBJECT
  6
Continuous
 48
100.0
100
AcDbLine
 10
34756.24525119389
 20
-26057.56447674157
 30
0.0
 11
34756.24518896837
 21
-26045.56447674139
 31
0.0
  0
LINE
  5
4802
330
18
100
AcDbEntity
  8
OBJECT
  6
Continuous
 48
100.0
100
AcDbLine
 10
34771.24518896875
 20
-26045.56450993505
 30
0.0
 11
34771.24435475218
 21
-25884.68842240717
 31
0.0
  0
MTEXT
  5
481C
330
18
100
AcDbEntity
  8
OBJECT
  6
Continuous
 48
100.0
100
AcDbMText
 10
30671.40757836011
 20
-21273.68776837656
 30
0.0
 40
100.0
 41
0.0017
 71
     1
 72
     5
  1
(OFF SET TYPE)
 73
     1
 44
1.0
  0
ARC
  5
4853
330
18
100
AcDbEntity
  8
OBJECT
  6
Continuous
 48
100.0
100
AcDbCircle
 10
31476.91039970413
 20
-12043.35954132683
 30
0.0
 40
30.0
100
AcDbArc
 50
90.0
 51
180.0
  0
ARC
  5
4854
330
18
100
AcDbEntity
  8
OBJECT
  6
Continuous
 48
100.0
100
AcDbCircle
 10
31106.91039970413
 20
-12043.35954132683
 30
0.0
 40
30.0
100
AcDbArc
 50
0.0
 51
90.0
  0
LINE
  5
4855
330
18
100
AcDbEntity
  8
OBJECT
  6
Continuous
 48
100.0
100
AcDbLine
 10
31526.91039970413
 20
-11813.35954132683
 30
0.0
 11
31526.91039970413
 21
-12113.35954132683
 31
0.0
  0
LINE
  5
4856
330
18
100
AcDbEntity
  8
OBJECT
  6
Continuous
 48
100.0
100
AcDbLine
 10
31056.91039970413
 20
-11813.35954132683
 30
0.0
 11
31056.91039970413
 21
-12113.35954132683
 31
0.0
  0
LINE
  5
4857
330
18
100
AcDbEntity
  8
OBJECT
  6
Continuous
 48
100.0
100
AcDbLine
 10
31496.91039970413
 20
-11813.35954132683
 30
0.0
 11
31496.91039970413
 21
-12113.35954132683
 31
0.0
  0
LINE
  5
4858
330
18
100
AcDbEntity
  8
OBJECT
  6
Continuous
 48
100.0
100
AcDbLine
 10
31086.91039970413
 20
-11813.35954132683
 30
0.0
 11
31086.91039970413
 21
-12113.35954132683
 31
0.0
  0
LINE
  5
4859
330
18
100
AcDbEntity
  8
OBJECT
  6
Continuous
 48
100.0
100
AcDbLine
 10
31056.91039970413
 20
-12113.35954132683
 30
0.0
 11
31526.91039970413
 21
-12113.35954132683
 31
0.0
  0
LINE
  5
485A
330
18
100
AcDbEntity
  8
OBJECT
  6
Continuous
 48
100.0
100
AcDbLine
 10
31446.91039970413
 20
-12043.35954132683
 30
0.0
 11
31446.91039970413
 21
-12113.35954132683
 31
0.0
  0
LINE
  5
485B
330
18
100
AcDbEntity
  8
OBJECT
  6
Continuous
 48
100.0
100
AcDbLine
 10
31136.91039970413
 20
-12043.35954132683
 30
0.0
 11
31136.91039970413
 21
-12113.35954132683
 31
0.0
  0
LINE
  5
485C
330
18
100
AcDbEntity
  8
OBJECT
  6
Continuous
 48
100.0
100
AcDbLine
 10
31476.91039970413
 20
-12013.35954132683
 30
0.0
 11
31496.91039970413
 21
-12013.35954132683
 31
0.0
  0
ARC
  5
485D
330
18
100
AcDbEntity
  8
OBJECT
  6
Continuous
 48
100.0
100
AcDbCircle
 10
31291.91039970413
 20
-11813.35954132683
 30
0.0
 40
205.0
100
AcDbArc
 50
0.0
 51
180.0
  0
LINE
  5
485E
330
18
100
AcDbEntity
  8
OBJECT
  6
Continuous
 48
100.0
100
AcDbLine
 10
31086.91039970413
 20
-12013.35954132683
 30
0.0
 11
31106.91039970413
 21
-12013.35954132683
 31
0.0
  0
LINE
  5
485F
330
18
100
AcDbEntity
  8
OBJECT
  6
Continuous
 48
100.0
100
AcDbLine
 10
31086.91039970413
 20
-11813.35954132683
 30
0.0
 11
31056.91039970413
 21
-11813.35954132683
 31
0.0
  0
CIRCLE
  5
4860
330
18
100
AcDbEntity
  8
OBJECT
  6
Continuous
 48
100.0
100
AcDbCircle
 10
31291.91039970413
 20
-11813.35954132683
 30
0.0
 40
55.0
  0
CIRCLE
  5
4861
330
18
100
AcDbEntity
  8
OBJECT
  6
Continuous
 48
100.0
100
AcDbCircle
 10
31291.91039970414
 20
-11813.35954132683
 30
0.0
 40
65.0
  0
CIRCLE
  5
4862
330
18
100
AcDbEntity
  8
OBJECT
  6
Continuous
 48
100.0
100
AcDbCircle
 10
31291.91039970414
 20
-11813.35954132683
 30
0.0
 40
165.0
  0
LINE
  5
4863
330
18
100
AcDbEntity
  8
OBJECT
  6
Continuous
 48
100.0
100
AcDbLine
 10
31526.91039970413
 20
-11813.35954132683
 30
0.0
 11
31496.91039970413
 21
-11813.35954132683
 31
0.0
  0
LINE
  5
4884
330
18
100
AcDbEntity
  8
OBJECT
  6
Continuous
 48
100.0
100
AcDbLine
 10
31526.91039970413
 20
-12013.55577123083
 30
0.0
 11
32629.41525432347
 21
-12013.56603244151
 31
0.0
  0
ARC
  5
4885
330
18
100
AcDbEntity
  8
OBJECT
  6
Continuous
 48
100.0
100
AcDbCircle
 10
9476.913124513037
 20
-12043.31897337072
 30
0.0
 40
30.0
100
AcDbArc
 50
90.0
 51
180.0
  0
ARC
  5
4886
330
18
100
AcDbEntity
  8
OBJECT
  6
Continuous
 48
100.0
100
AcDbCircle
 10
9106.913124513038
 20
-12043.31897337072
 30
0.0
 40
30.0
100
AcDbArc
 50
0.0
 51
90.0
  0
LINE
  5
4887
330
18
100
AcDbEntity
  8
OBJECT
  6
Continuous
 48
100.0
100
AcDbLine
 10
9526.913124513038
 20
-11813.31897337072
 30
0.0
 11
9526.913124513034
 21
-12113.31897337072
 31
0.0
  0
LINE
  5
4888
330
18
100
AcDbEntity
  8
OBJECT
  6
Continuous
 48
100.0
100
AcDbLine
 10
9056.913124513037
 20
-11813.31897337072
 30
0.0
 11
9056.913124513041
 21
-12113.31897337072
 31
0.0
  0
LINE
  5
4889
330
18
100
AcDbEntity
  8
OBJECT
  6
Continuous
 48
100.0
100
AcDbLine
 10
9496.913124513037
 20
-11813.31897337072
 30
0.0
 11
9496.913124513037
 21
-12113.31897337072
 31
0.0
  0
LINE
  5
488A
330
18
100
AcDbEntity
  8
OBJECT
  6
Continuous
 48
100.0
100
AcDbLine
 10
9086.913124513037
 20
-11813.31897337072
 30
0.0
 11
9086.913124513037
 21
-12113.31897337072
 31
0.0
  0
LINE
  5
488B
330
18
100
AcDbEntity
  8
OBJECT
  6
Continuous
 48
100.0
100
AcDbLine
 10
9056.913124513041
 20
-12113.31897337072
 30
0.0
 11
9526.913124513034
 21
-12113.31897337072
 31
0.0
  0
LINE
  5
488C
330
18
100
AcDbEntity
  8
OBJECT
  6
Continuous
 48
100.0
100
AcDbLine
 10
9446.913124513036
 20
-12043.31897337072
 30
0.0
 11
9446.913124513036
 21
-12113.31897337072
 31
0.0
  0
LINE
  5
488D
330
18
100
AcDbEntity
  8
OBJECT
  6
Continuous
 48
100.0
100
AcDbLine
 10
9136.913124513037
 20
-12043.31897337072
 30
0.0
 11
9136.913124513037
 21
-12113.31897337072
 31
0.0
  0
LINE
  5
488E
330
18
100
AcDbEntity
  8
OBJECT
  6
Continuous
 48
100.0
100
AcDbLine
 10
9476.913124513037
 20
-12013.31897337072
 30
0.0
 11
9496.913124513033
 21
-12013.31897337072
 31
0.0
  0
ARC
  5
488F
330
18
100
AcDbEntity
  8
OBJECT
  6
Continuous
 48
100.0
100
AcDbCircle
 10
9291.913124513037
 20
-11813.31897337072
 30
0.0
 40
205.0
100
AcDbArc
 50
0.0
 51
180.0
  0
LINE
  5
4890
330
18
100
AcDbEntity
  8
OBJECT
  6
Continuous
 48
100.0
100
AcDbLine
 10
9086.913124513037
 20
-12013.31897337072
 30
0.0
 11
9106.913124513038
 21
-12013.31897337072
 31
0.0
  0
LINE
  5
4891
330
18
100
AcDbEntity
  8
OBJECT
  6
Continuous
 48
100.0
100
AcDbLine
 10
9086.913124513037
 20
-11813.31897337072
 30
0.0
 11
9056.913124513037
 21
-11813.31897337072
 31
0.0
  0
CIRCLE
  5
4892
330
18
100
AcDbEntity
  8
OBJECT
  6
Continuous
 48
100.0
100
AcDbCircle
 10
9291.913124513037
 20
-11813.31897337072
 30
0.0
 40
55.0
  0
CIRCLE
  5
4893
330
18
100
AcDbEntity
  8
OBJECT
  6
Continuous
 48
100.0
100
AcDbCircle
 10
9291.913124513042
 20
-11813.31897337072
 30
0.0
 40
65.0
  0
CIRCLE
  5
4894
330
18
100
AcDbEntity
  8
OBJECT
  6
Continuous
 48
100.0
100
AcDbCircle
 10
9291.913124513042
 20
-11813.31897337072
 30
0.0
 40
165.0
  0
LINE
  5
4895
330
18
100
AcDbEntity
  8
OBJECT
  6
Continuous
 48
100.0
100
AcDbLine
 10
9526.913124513038
 20
-11813.31897337072
 30
0.0
 11
9496.913124513037
 21
-11813.31897337072
 31
0.0
  0
LINE
  5
4896
330
18
100
AcDbEntity
  8
OBJECT
  6
Continuous
 48
100.0
100
AcDbLine
 10
9526.913124513034
 20
-12013.35101330528
 30
0.0
 11
20629.41525455225
 21
-12013.45434628647
 31
0.0
  0
LINE
  5
4897
330
18
100
AcDbEntity
  8
OBJECT
  6
Continuous
 48
100.0
100
AcDbLine
 10
31497.16361258564
 20
-19933.57838610528
 30
0.0
 11
31292.16396236579
 21
-19933.5783969344
 31
0.0
  0
LINE
  5
4898
330
18
100
AcDbEntity
  8
OBJECT
  6
Continuous
 48
100.0
100
AcDbLine
 10
31776.66785384387
 20
-19952.57837134047
 30
0.0
 11
31292.16387444944
 21
-19952.5783969344
 31
0.0
  0
LINE
  5
4899
330
18
100
AcDbEntity
  8
OBJECT
  6
Continuous
 48
100.0
100
AcDbLine
 10
31497.16334933836
 20
-19971.5783861053
 30
0.0
 11
31292.16378653306
 21
-19971.5783969344
 31
0.0
  0
LINE
  5
489A
330
18
100
AcDbEntity
  8
OBJECT
  6
Continuous
 48
100.0
100
AcDbLine
 10
31057.16394218866
 20
-20092.57620975389
 30
0.0
 11
31057.16459369122
 21
-19812.57620974783
 31
0.0
  0
LINE
  5
489B
330
18
100
AcDbEntity
  8
OBJECT
  6
Continuous
 48
100.0
100
AcDbLine
 10
31087.16394219446
 20
-20092.57648896928
 30
0.0
 11
31087.16459369703
 21
-19812.57648896322
 31
0.0
  0
LINE
  5
489C
330
18
100
AcDbEntity
  8
OBJECT
  6
Continuous
 48
100.0
100
AcDbLine
 10
31087.16422373664
 20
-19971.57648896666
 30
0.0
 11
31292.16378653307
 21
-19971.5783969344
 31
0.0
  0
LINE
  5
489D
330
18
100
AcDbEntity
  8
OBJECT
  6
Continuous
 48
100.0
100
AcDbLine
 10
30807.65989507598
 20
-19952.57388756885
 30
0.0
 11
31292.16387444944
 21
-19952.5783969344
 31
0.0
  0
LINE
  5
489E
330
18
100
AcDbEntity
  8
OBJECT
  6
Continuous
 48
100.0
100
AcDbLine
 10
31087.16431215485
 20
-19933.57648896584
 30
0.0
 11
31292.16396236581
 21
-19933.5783969344
 31
0.0
  0
LINE
  5
489F
330
18
100
AcDbEntity
  8
OBJECT
  6
Continuous
 48
100.0
100
AcDbLine
 10
31057.16412833224
 20
-20012.57620975216
 30
0.0
 11
31087.16412833805
 21
-20012.57648896755
 31
0.0
  0
LINE
  5
48A0
330
18
100
AcDbEntity
  8
OBJECT
  6
Continuous
 48
100.0
100
AcDbLine
 10
31057.16394218866
 20
-20092.57620975389
 30
0.0
 11
31087.16394219446
 21
-20092.57648896928
 31
0.0
  0
LINE
  5
48A1
330
18
100
AcDbEntity
  8
OBJECT
  6
Continuous
 48
100.0
100
AcDbLine
 10
31457.16326620469
 20
-19983.57838821831
 30
0.0
 11
31457.1636957134
 21
-19921.57838821828
 31
0.0
  0
LINE
  5
48A2
330
18
100
AcDbEntity
  8
OBJECT
  6
Continuous
 48
100.0
100
AcDbLine
 10
31347.16334931249
 20
-19971.57839402905
 30
0.0
 11
31347.16361255976
 21
-19933.57839402904
 31
0.0
  0
LINE
  5
48A3
330
18
100
AcDbEntity
  8
OBJECT
  6
Continuous
 48
100.0
100
AcDbLine
 10
31357.1632661867
 20
-19983.57839350081
 30
0.0
 11
31357.16334931742
 21
-19971.5783935008
 31
0.0
  0
LINE
  5
48A4
330
18
100
AcDbEntity
  8
OBJECT
  6
Continuous
 48
100.0
100
AcDbLine
 10
31357.16361256469
 20
-19933.57839350078
 30
0.0
 11
31357.16369569541
 21
-19921.57839350078
 31
0.0
  0
LINE
  5
48A5
330
18
100
AcDbEntity
  8
OBJECT
  6
Continuous
 48
100.0
100
AcDbLine
 10
31457.1636957134
 20
-19921.57838821828
 30
0.0
 11
31292.16401789193
 21
-19921.5783969344
 31
0.0
  0
LINE
  5
48A6
330
18
100
AcDbEntity
  8
OBJECT
  6
Continuous
 48
100.0
100
AcDbLine
 10
31457.16326620469
 20
-19983.57838821831
 30
0.0
 11
31292.16373100693
 21
-19983.57839693441
 31
0.0
  0
LINE
  5
48A7
330
18
100
AcDbEntity
  8
OBJECT
  6
Continuous
 48
100.0
100
AcDbLine
 10
31127.16419581633
 20
-19983.57686125411
 30
0.0
 11
31292.16373100694
 21
-19983.57839693441
 31
0.0
  0
LINE
  5
48A8
330
18
100
AcDbEntity
  8
OBJECT
  6
Continuous
 48
100.0
100
AcDbLine
 10
31127.16434007761
 20
-19921.57686125276
 30
0.0
 11
31292.16401789193
 21
-19921.5783969344
 31
0.0
  0
LINE
  5
48A9
330
18
100
AcDbEntity
  8
OBJECT
  6
Continuous
 48
100.0
100
AcDbLine
 10
31227.16431216973
 20
-19933.57779197098
 30
0.0
 11
31227.16434009127
 21
-19921.57779197072
 31
0.0
  0
LINE
  5
48AA
330
18
100
AcDbEntity
  8
OBJECT
  6
Continuous
 48
100.0
100
AcDbLine
 10
31227.16419582999
 20
-19983.57779197206
 30
0.0
 11
31227.16422375153
 21
-19971.5777919718
 31
0.0
  0
LINE
  5
48AB
330
18
100
AcDbEntity
  8
OBJECT
  6
Continuous
 48
100.0
100
AcDbLine
 10
31237.16422375602
 20
-19971.5778850436
 30
0.0
 11
31237.16431217423
 21
-19933.57788504277
 31
0.0
  0
LINE
  5
48AC
330
18
100
AcDbEntity
  8
OBJECT
  6
Continuous
 48
100.0
100
AcDbLine
 10
31127.16419581633
 20
-19983.57686125411
 30
0.0
 11
31127.16434007761
 21
-19921.57686125276
 31
0.0
  0
LINE
  5
48AD
330
18
100
AcDbEntity
  8
OBJECT
  6
Continuous
 48
100.0
100
AcDbLine
 10
31057.16440754762
 20
-19892.57620974956
 30
0.0
 11
31087.16440755344
 21
-19892.57648896495
 31
0.0
  0
LINE
  5
48AE
330
18
100
AcDbEntity
  8
OBJECT
  6
Continuous
 48
100.0
100
AcDbLine
 10
31057.16459369122
 20
-19812.57620974783
 30
0.0
 11
31087.16459369703
 21
-19812.57648896322
 31
0.0
  0
LINE
  5
48AF
330
18
100
AcDbEntity
  8
OBJECT
  6
Continuous
 48
100.0
100
AcDbLine
 10
31497.16251110365
 20
-20092.57838610534
 30
0.0
 11
31497.16445082035
 21
-19812.57838610524
 31
0.0
  0
LINE
  5
48B0
330
18
100
AcDbEntity
  8
OBJECT
  6
Continuous
 48
100.0
100
AcDbLine
 10
31527.16251111075
 20
-20092.5783845206
 30
0.0
 11
31527.16445082746
 21
-19812.57838452049
 31
0.0
  0
LINE
  5
48B1
330
18
100
AcDbEntity
  8
OBJECT
  6
Continuous
 48
100.0
100
AcDbLine
 10
31527.16306531553
 20
-20012.57838452056
 30
0.0
 11
31497.16306530842
 21
-20012.57838610532
 31
0.0
  0
LINE
  5
48B2
330
18
100
AcDbEntity
  8
OBJECT
  6
Continuous
 48
100.0
100
AcDbLine
 10
31527.16251111075
 20
-20092.5783845206
 30
0.0
 11
31497.16251110365
 21
-20092.57838610534
 31
0.0
  0
LINE
  5
48B3
330
18
100
AcDbEntity
  8
OBJECT
  6
Continuous
 48
100.0
100
AcDbLine
 10
31527.1638966227
 20
-19892.57838452052
 30
0.0
 11
31497.16389661558
 21
-19892.57838610527
 31
0.0
  0
LINE
  5
48B4
330
18
100
AcDbEntity
  8
OBJECT
  6
Continuous
 48
100.0
100
AcDbLine
 10
31527.16445082746
 20
-19812.57838452049
 30
0.0
 11
31497.16445082035
 21
-19812.57838610524
 31
0.0
  0
LINE
  5
48EC
330
18
100
AcDbEntity
  8
OBJECT
  6
Continuous
 48
100.0
100
AcDbLine
 10
9776.667854379859
 20
-19952.42480287728
 30
0.0
 11
9292.163874985424
 21
-19952.42482847121
 31
0.0
  0
MTEXT
  5
48ED
330
18
100
AcDbEntity
  8
OBJECT
  6
Continuous
 48
100.0
100
AcDbMText
 10
8671.407578896102
 20
-21273.53419991337
 30
0.0
 40
100.0
 41
0.0017
 71
     1
 72
     5
  1
(OFF SET TYPE)
 73
     1
 44
1.0
  0
ARC
  5
48EE
330
18
100
AcDbEntity
  8
OBJECT
  6
Continuous
 48
100.0
100
AcDbCircle
 10
9617.155561474909
 20
-20681.36288686202
 30
0.0
 40
309.9928032175755
100
AcDbArc
 50
89.9982274497013
 51
270.0014993405031
  0
ARC
  5
48EF
330
18
100
AcDbEntity
  8
OBJECT
  6
Continuous
 48
100.0
100
AcDbCircle
 10
9767.169955039726
 20
-20681.36278257621
 30
0.0
 40
309.9928032175755
100
AcDbArc
 50
269.9985803203404
 51
90.00185221114216
  0
LINE
  5
48F0
330
18
100
AcDbEntity
  8
OBJECT
  6
CENTER2
 48
0.009
100
AcDbLine
 10
9132.167559546804
 20
-20681.3596061133
 30
0.0
 11
10252.1555614673
 21
-20681.36697322676
 31
0.0
  0
LINE
  5
48F1
330
18
100
AcDbEntity
  8
OBJECT
  6
Continuous
 48
100.0
100
AcDbLine
 10
9767.162274011887
 20
-20991.35558569863
 30
0.0
 11
9617.163673499376
 21
-20991.35568997346
 31
0.0
  0
LINE
  5
48F2
330
18
100
AcDbEntity
  8
OBJECT
  6
HIDDEN2
 48
0.02
100
AcDbLine
 10
9617.153990888361
 20
-20906.36288685654
 30
0.0
 11
9767.153990918101
 21
-20906.35993463386
 31
0.0
  0
LINE
  5
48F3
330
18
100
AcDbEntity
  8
OBJECT
  6
Continuous
 48
100.0
100
AcDbLine
 10
9767.159933845688
 20
-20371.36997952062
 30
0.0
 11
9617.165151672315
 21
-20371.37008379279
 31
0.0
  0
LINE
  5
48F4
330
18
100
AcDbEntity
  8
OBJECT
  6
HIDDEN2
 48
0.02
100
AcDbLine
 10
9767.157132091206
 20
-20456.35993464482
 30
0.0
 11
9617.157132061468
 21
-20456.3628868675
 31
0.0
  0
LINE
  5
48F5
330
18
100
AcDbEntity
  8
OBJECT
  6
CENTER2
 48
0.009
100
AcDbLine
 10
9692.162421100583
 20
-20196.36525898858
 30
0.0
 11
9692.163095417429
 21
-21166.36525888951
 31
0.0
  0
LINE
  5
48F6
330
18
100
AcDbEntity
  8
OBJECT
  6
CENTER2
 48
0.009
100
AcDbLine
 10
8892.161893710309
 20
-20196.35967467715
 30
0.0
 11
8892.147677447169
 21
-21166.35967447413
 31
0.0
  0
ARC
  5
48F7
330
18
100
AcDbEntity
  8
OBJECT
  6
Continuous
 48
100.0
100
AcDbCircle
 10
8817.147588839905
 20
-20681.35615105464
 30
0.0
 40
309.9928032175755
100
AcDbArc
 50
89.99734789569361
 51
270.0006197864954
  0
ARC
  5
48F8
330
18
100
AcDbEntity
  8
OBJECT
  6
Continuous
 48
100.0
100
AcDbCircle
 10
8967.161982388647
 20
-20681.35834965679
 30
0.0
 40
309.9928032175755
100
AcDbArc
 50
269.9977007663327
 51
90.00097265713447
  0
LINE
  5
48F9
330
18
100
AcDbEntity
  8
OBJECT
  6
Continuous
 48
100.0
100
AcDbLine
 10
8817.150942129705
 20
-20991.34895425407
 30
0.0
 11
8967.149542626144
 21
-20991.35115262477
 31
0.0
  0
MTEXT
  5
48FA
330
18
100
AcDbEntity
  8
OBJECT
  6
Continuous
 48
100.0
100
AcDbMText
 10
8631.064323325082
 20
-21034.82792452438
 30
0.0
 40
180.0
 41
267.0601
 71
     1
 72
     5
  1
M
 73
     1
 44
1.0
  0
MTEXT
  5
48FB
330
18
100
AcDbEntity
  8
OBJECT
  6
Continuous
 48
100.0
100
AcDbMText
 10
9153.230095837539
 20
-21034.83557735534
 30
0.0
 40
180.0
 41
267.0601
 71
     1
 72
     5
  1
H
210
0.0
220
0.0
230
-1.0
 11
-0.9999999995704067
 21
0.0000293118827591
 31
0.0
 73
     1
 44
1.0
  0
MTEXT
  5
48FC
330
18
100
AcDbEntity
  8
OBJECT
  6
Continuous
 48
100.0
100
AcDbMText
 10
9431.07974129534
 20
-21034.83350893975
 30
0.0
 40
180.0
 41
267.0601
 71
     1
 72
     5
  1
M
 73
     1
 44
1.0
  0
LINE
  5
48FD
330
18
100
AcDbEntity
  8
OBJECT
  6
Continuous
 48
100.0
100
AcDbLine
 10
8807.659895611974
 20
-19952.42031910567
 30
0.0
 11
9292.163874985424
 21
-19952.42482847121
 31
0.0
  0
LINE
  5
48FE
330
18
100
AcDbEntity
  8
OBJECT
  6
CENTER2
 48
0.009
100
AcDbLine
 10
9452.149984315289
 20
-20681.36183971372
 30
0.0
 11
8332.161982401085
 21
-20681.35357093298
 31
0.0
  0
ARC
  5
48FF
330
18
100
AcDbEntity
  8
OBJECT
  6
HIDDEN2
 48
0.02
100
AcDbCircle
 10
8817.161982414731
 20
-20681.35330331871
 30
0.0
 40
225.0
100
AcDbArc
 50
89.99960005341787
 51
269.9996000534179
  0
ARC
  5
4900
330
18
100
AcDbEntity
  8
OBJECT
  6
HIDDEN2
 48
0.02
100
AcDbCircle
 10
8967.16198238864
 20
-20681.35834965679
 30
0.0
 40
225.0
100
AcDbArc
 50
269.999600053418
 51
89.99960005341794
  0
LINE
  5
4901
330
18
100
AcDbEntity
  8
OBJECT
  6
HIDDEN2
 48
0.02
100
AcDbLine
 10
8817.163553001291
 20
-20456.35330332419
 30
0.0
 11
8967.163552975199
 21
-20456.35834966228
 31
0.0
  0
LINE
  5
4902
330
18
100
AcDbEntity
  8
OBJECT
  6
Continuous
 48
100.0
100
AcDbLine
 10
8817.161937771972
 20
-20371.36334816915
 30
0.0
 11
8967.156719929274
 21
-20371.36554648388
 31
0.0
  0
LINE
  5
4903
330
18
100
AcDbEntity
  8
OBJECT
  6
HIDDEN2
 48
0.02
100
AcDbLine
 10
8967.160411802082
 20
-20906.35834965131
 30
0.0
 11
8817.160411828172
 21
-20906.35330331322
 31
0.0
  0
ARC
  5
4904
330
18
100
AcDbEntity
  8
OBJECT
  6
HIDDEN2
 48
0.02
100
AcDbCircle
 10
9617.155561474916
 20
-20681.36288686202
 30
0.0
 40
225.0
100
AcDbArc
 50
89.99960005341785
 51
269.9996000534178
  0
LINE
  5
4905
330
18
100
AcDbEntity
  8
OBJECT
  6
Continuous
 48
100.0
100
AcDbLine
 10
9457.163266740684
 20
-19983.42481975512
 30
0.0
 11
9292.163731542926
 21
-19983.42482847123
 31
0.0
  0
LINE
  5
4906
330
18
100
AcDbEntity
  8
OBJECT
  6
Continuous
 48
100.0
100
AcDbLine
 10
9457.163696249386
 20
-19921.4248197551
 30
0.0
 11
9292.164018427921
 21
-19921.42482847121
 31
0.0
  0
LINE
  5
4907
330
18
100
AcDbEntity
  8
OBJECT
  6
Continuous
 48
100.0
100
AcDbLine
 10
9497.163349874353
 20
-19971.42481764211
 30
0.0
 11
9292.16378706905
 21
-19971.42482847122
 31
0.0
  0
LINE
  5
4908
330
18
100
AcDbEntity
  8
OBJECT
  6
Continuous
 48
100.0
100
AcDbLine
 10
9497.163613121626
 20
-19933.4248176421
 30
0.0
 11
9292.163962901785
 21
-19933.42482847121
 31
0.0
  0
LINE
  5
4909
330
18
100
AcDbEntity
  8
OBJECT
  6
Continuous
 48
100.0
100
AcDbLine
 10
9057.164594227215
 20
-19812.42264128464
 30
0.0
 11
9087.164594233021
 21
-19812.42292050003
 31
0.0
  0
LINE
  5
490A
330
18
100
AcDbEntity
  8
OBJECT
  6
Continuous
 48
100.0
100
AcDbLine
 10
9057.164408083613
 20
-19892.42264128637
 30
0.0
 11
9087.16440808943
 21
-19892.42292050176
 31
0.0
  0
LINE
  5
490B
330
18
100
AcDbEntity
  8
OBJECT
  6
Continuous
 48
100.0
100
AcDbLine
 10
9127.164196352318
 20
-19983.42329279092
 30
0.0
 11
9127.1643406136
 21
-19921.42329278958
 31
0.0
  0
LINE
  5
490C
330
18
100
AcDbEntity
  8
OBJECT
  6
Continuous
 48
100.0
100
AcDbLine
 10
9237.16422429201
 20
-19971.42431658041
 30
0.0
 11
9237.164312710214
 21
-19933.42431657959
 31
0.0
  0
LINE
  5
490D
330
18
100
AcDbEntity
  8
OBJECT
  6
Continuous
 48
100.0
100
AcDbLine
 10
9227.164196365981
 20
-19983.42422350888
 30
0.0
 11
9227.16422428752
 21
-19971.42422350862
 31
0.0
  0
LINE
  5
490E
330
18
100
AcDbEntity
  8
OBJECT
  6
Continuous
 48
100.0
100
AcDbLine
 10
9227.164312705722
 20
-19933.42422350779
 30
0.0
 11
9227.164340627259
 21
-19921.42422350753
 31
0.0
  0
LINE
  5
490F
330
18
100
AcDbEntity
  8
OBJECT
  6
Continuous
 48
100.0
100
AcDbLine
 10
9127.1643406136
 20
-19921.42329278958
 30
0.0
 11
9292.164018427921
 21
-19921.42482847121
 31
0.0
  0
LINE
  5
4910
330
18
100
AcDbEntity
  8
OBJECT
  6
Continuous
 48
100.0
100
AcDbLine
 10
9127.164196352318
 20
-19983.42329279092
 30
0.0
 11
9292.163731542933
 21
-19983.42482847123
 31
0.0
  0
LINE
  5
4911
330
18
100
AcDbEntity
  8
OBJECT
  6
Continuous
 48
100.0
100
AcDbLine
 10
9347.163349848484
 20
-19971.42482556587
 30
0.0
 11
9347.163613095752
 21
-19933.42482556585
 31
0.0
  0
LINE
  5
4912
330
18
100
AcDbEntity
  8
OBJECT
  6
Continuous
 48
100.0
100
AcDbLine
 10
9057.163942724645
 20
-20092.42264129071
 30
0.0
 11
9087.163942730446
 21
-20092.42292050609
 31
0.0
  0
LINE
  5
4913
330
18
100
AcDbEntity
  8
OBJECT
  6
Continuous
 48
100.0
100
AcDbLine
 10
9057.164128868226
 20
-20012.42264128897
 30
0.0
 11
9087.164128874039
 21
-20012.42292050436
 31
0.0
  0
LINE
  5
4914
330
18
100
AcDbEntity
  8
OBJECT
  6
Continuous
 48
100.0
100
AcDbLine
 10
9087.164312690838
 20
-19933.42292050265
 30
0.0
 11
9292.163962901799
 21
-19933.42482847121
 31
0.0
  0
LINE
  5
4915
330
18
100
AcDbEntity
  8
OBJECT
  6
Continuous
 48
100.0
100
AcDbLine
 10
9087.164224272633
 20
-19971.42292050347
 30
0.0
 11
9292.163787069062
 21
-19971.42482847122
 31
0.0
  0
LINE
  5
4916
330
18
100
AcDbEntity
  8
OBJECT
  6
Continuous
 48
100.0
100
AcDbLine
 10
9087.163942730446
 20
-20092.42292050609
 30
0.0
 11
9087.164594233021
 21
-19812.42292050003
 31
0.0
  0
LINE
  5
4917
330
18
100
AcDbEntity
  8
OBJECT
  6
Continuous
 48
100.0
100
AcDbLine
 10
9057.163942724645
 20
-20092.42264129071
 30
0.0
 11
9057.164594227215
 21
-19812.42264128464
 31
0.0
  0
LINE
  5
4918
330
18
100
AcDbEntity
  8
OBJECT
  6
Continuous
 48
100.0
100
AcDbLine
 10
9527.164451363452
 20
-19812.42481605731
 30
0.0
 11
9497.164451356345
 21
-19812.42481764206
 31
0.0
  0
LINE
  5
4919
330
18
100
AcDbEntity
  8
OBJECT
  6
Continuous
 48
100.0
100
AcDbLine
 10
9527.163897158686
 20
-19892.42481605733
 30
0.0
 11
9497.163897151571
 21
-19892.42481764209
 31
0.0
  0
LINE
  5
491A
330
18
100
AcDbEntity
  8
OBJECT
  6
Continuous
 48
100.0
100
AcDbLine
 10
9527.162511646741
 20
-20092.42481605741
 30
0.0
 11
9497.16251163964
 21
-20092.42481764216
 31
0.0
  0
LINE
  5
491B
330
18
100
AcDbEntity
  8
OBJECT
  6
Continuous
 48
100.0
100
AcDbLine
 10
9527.163065851524
 20
-20012.42481605738
 30
0.0
 11
9497.163065844413
 21
-20012.42481764213
 31
0.0
  0
LINE
  5
491C
330
18
100
AcDbEntity
  8
OBJECT
  6
Continuous
 48
100.0
100
AcDbLine
 10
9527.162511646741
 20
-20092.42481605741
 30
0.0
 11
9527.164451363452
 21
-19812.42481605731
 31
0.0
  0
LINE
  5
491D
330
18
100
AcDbEntity
  8
OBJECT
  6
Continuous
 48
100.0
100
AcDbLine
 10
9497.16251163964
 20
-20092.42481764216
 30
0.0
 11
9497.164451356345
 21
-19812.42481764206
 31
0.0
  0
LINE
  5
491E
330
18
100
AcDbEntity
  8
OBJECT
  6
Continuous
 48
100.0
100
AcDbLine
 10
9357.163613100679
 20
-19933.4248250376
 30
0.0
 11
9357.163696231397
 21
-19921.4248250376
 31
0.0
  0
LINE
  5
491F
330
18
100
AcDbEntity
  8
OBJECT
  6
Continuous
 48
100.0
100
AcDbLine
 10
9357.163266722688
 20
-19983.42482503762
 30
0.0
 11
9357.163349853406
 21
-19971.42482503761
 31
0.0
  0
LINE
  5
4920
330
18
100
AcDbEntity
  8
OBJECT
  6
Continuous
 48
100.0
100
AcDbLine
 10
9457.163266740684
 20
-19983.42481975512
 30
0.0
 11
9457.163696249386
 21
-19921.4248197551
 31
0.0
  0
MTEXT
  5
4921
330
18
100
AcDbEntity
  8
OBJECT
  6
Continuous
 48
100.0
100
AcDbMText
 10
9953.245513807797
 20
-21034.84116177071
 30
0.0
 40
180.0
 41
267.0601
 71
     1
 72
     5
  1
H
210
0.0
220
0.0
230
-1.0
 11
-0.9999999995704067
 21
0.0000293118827591
 31
0.0
 73
     1
 44
1.0
  0
ARC
  5
4922
330
18
100
AcDbEntity
  8
OBJECT
  6
HIDDEN2
 48
0.02
100
AcDbCircle
 10
9767.155561504653
 20
-20681.35993463934
 30
0.0
 40
225.0
100
AcDbArc
 50
269.9996000534179
 51
89.9996000534179
  0
LINE
  5
4923
330
18
100
AcDbEntity
  8
OBJECT
  6
HIDDEN2
 48
0.02
100
AcDbLine
 10
8967.088277405087
 20
-30656.39635745195
 30
0.0
 11
8817.088277372929
 21
-30656.39918427879
 31
0.0
  0
LINE
  5
4924
330
18
100
AcDbEntity
  8
OBJECT
  6
Continuous
 48
100.0
100
AcDbLine
 10
8817.081887208551
 20
-31191.38913938687
 30
0.0
 11
8967.07666938196
 21
-31191.38916050618
 31
0.0
  0
LINE
  5
4925
330
18
100
AcDbEntity
  8
OBJECT
  6
HIDDEN2
 48
0.02
100
AcDbLine
 10
8817.084760012281
 20
-31106.39918426504
 30
0.0
 11
8967.084760044439
 21
-31106.39635743821
 31
0.0
  0
ARC
  5
4926
330
18
100
AcDbEntity
  8
OBJECT
  6
HIDDEN2
 48
0.02
100
AcDbCircle
 10
8817.086518692606
 20
-30881.39918427191
 30
0.0
 40
225.0
100
AcDbArc
 50
89.99955215573207
 51
269.9995521557321
  0
LINE
  5
4927
330
18
100
AcDbEntity
  8
OBJECT
  6
Continuous
 48
100.0
100
AcDbLine
 10
8807.573646057804
 20
-31610.33202780523
 30
0.0
 11
9292.077625444939
 21
-31610.33468751992
 31
0.0
  0
LINE
  5
4928
330
18
100
AcDbEntity
  8
OBJECT
  6
Continuous
 48
100.0
100
AcDbLine
 10
8817.080065333156
 20
-30571.40353320712
 30
0.0
 11
8967.078665845702
 21
-30571.40355432697
 31
0.0
  0
ARC
  5
4929
330
18
100
AcDbEntity
  8
OBJECT
  6
Continuous
 48
100.0
100
AcDbCircle
 10
8967.086518724771
 20
-30881.39635744508
 30
0.0
 40
309.9928032175755
100
AcDbArc
 50
269.9981795520155
 51
90.00145144281729
  0
ARC
  5
492A
330
18
100
AcDbEntity
  8
OBJECT
  6
Continuous
 48
100.0
100
AcDbCircle
 10
8817.072125159917
 20
-30881.396336323
 30
0.0
 40
309.9928032175755
100
AcDbArc
 50
89.99853242265455
 51
270.0018043134563
  0
LINE
  5
492D
330
18
100
AcDbEntity
  8
OBJECT
  6
CENTER2
 48
0.009
100
AcDbLine
 10
8892.079253654523
 20
-31366.39392261469
 30
0.0
 11
8892.079390230835
 21
-30396.39392271354
 31
0.0
  0
LINE
  5
492E
330
18
100
AcDbEntity
  8
OBJECT
  6
CENTER2
 48
0.009
100
AcDbLine
 10
9692.079781039851
 20
-31366.40017570443
 30
0.0
 11
9692.094808196145
 21
-30396.40017591967
 31
0.0
  0
ARC
  5
492F
330
18
100
AcDbEntity
  8
OBJECT
  6
Continuous
 48
100.0
100
AcDbCircle
 10
9767.094491353862
 20
-30881.40376203699
 30
0.0
 40
309.9928032175755
100
AcDbArc
 50
269.9972999980078
 51
90.00057188880962
  0
ARC
  5
4930
330
18
100
AcDbEntity
  8
OBJECT
  6
Continuous
 48
100.0
100
AcDbCircle
 10
9617.080097807011
 20
-30881.40143802696
 30
0.0
 40
309.9928032175755
100
AcDbArc
 50
89.99765286864686
 51
270.0009247594486
  0
LINE
  5
4934
330
18
100
AcDbEntity
  8
OBJECT
  6
Continuous
 48
100.0
100
AcDbLine
 10
9767.091397209462
 20
-30571.41095883486
 30
0.0
 11
9617.092796714917
 21
-30571.40863506949
 31
0.0
  0
ARC
  5
4935
330
18
100
AcDbEntity
  8
OBJECT
  6
HIDDEN2
 48
0.02
100
AcDbCircle
 10
9617.080097807019
 20
-30881.40143802695
 30
0.0
 40
225.0
100
AcDbArc
 50
89.99955215573214
 51
269.9995521557322
  0
LINE
  5
4936
330
18
100
AcDbEntity
  8
OBJECT
  6
CENTER2
 48
0.009
100
AcDbLine
 10
9132.092095883455
 20
-30881.39754253348
 30
0.0
 11
10252.08009779035
 21
-30881.40674759319
 31
0.0
  0
LINE
  5
4937
330
18
100
AcDbEntity
  8
OBJECT
  6
Continuous
 48
100.0
100
AcDbLine
 10
9776.581604785956
 20
-31610.34188219408
 30
0.0
 11
9292.077625444939
 21
-31610.33468751992
 31
0.0
  0
ARC
  5
4938
330
18
100
AcDbEntity
  8
OBJECT
  6
HIDDEN2
 48
0.02
100
AcDbCircle
 10
8967.086518724764
 20
-30881.39635744508
 30
0.0
 40
225.0
100
AcDbArc
 50
269.999552155732
 51
89.99955215573203
  0
LINE
  5
4939
330
18
100
AcDbEntity
  8
OBJECT
  6
Continuous
 48
100.0
100
AcDbLine
 10
9087.078255864453
 20
-31591.33356216285
 30
0.0
 11
9292.077818666667
 21
-31591.33468752069
 31
0.0
  0
LINE
  5
493A
330
18
100
AcDbEntity
  8
OBJECT
  6
Continuous
 48
100.0
100
AcDbLine
 10
9087.077782006472
 20
-31629.33356216083
 30
0.0
 11
9292.077432223221
 21
-31629.33468751914
 31
0.0
  0
LINE
  5
493B
330
18
100
AcDbEntity
  8
OBJECT
  6
Continuous
 48
100.0
100
AcDbLine
 10
9127.078405506166
 20
-31579.33378174598
 30
0.0
 11
9292.077940701439
 21
-31579.33468752118
 31
0.0
  0
LINE
  5
493C
330
18
100
AcDbEntity
  8
OBJECT
  6
Continuous
 48
100.0
100
AcDbLine
 10
9127.077632369461
 20
-31641.33378174267
 30
0.0
 11
9292.077310188442
 21
-31641.33468751865
 31
0.0
  0
LINE
  5
493D
330
18
100
AcDbEntity
  8
OBJECT
  6
Continuous
 48
100.0
100
AcDbLine
 10
9057.079764721361
 20
-31470.33339748246
 30
0.0
 11
9057.076273136253
 21
-31750.33339746751
 31
0.0
  0
LINE
  5
493E
330
18
100
AcDbEntity
  8
OBJECT
  6
Continuous
 48
100.0
100
AcDbLine
 10
9087.079764728011
 20
-31470.33356216932
 30
0.0
 11
9087.07627314291
 21
-31750.33356215437
 31
0.0
  0
LINE
  5
493F
330
18
100
AcDbEntity
  8
OBJECT
  6
Continuous
 48
100.0
100
AcDbLine
 10
9057.078767125606
 20
-31550.33339747818
 30
0.0
 11
9087.078767132267
 21
-31550.33356216505
 31
0.0
  0
LINE
  5
4940
330
18
100
AcDbEntity
  8
OBJECT
  6
Continuous
 48
100.0
100
AcDbLine
 10
9057.079764721361
 20
-31470.33339748246
 30
0.0
 11
9087.079764728011
 21
-31470.33356216932
 31
0.0
  0
LINE
  5
4941
330
18
100
AcDbEntity
  8
OBJECT
  6
Continuous
 48
100.0
100
AcDbLine
 10
9227.077782025309
 20
-31629.33433069953
 30
0.0
 11
9227.077632385947
 21
-31641.33433069889
 31
0.0
  0
LINE
  5
4942
330
18
100
AcDbEntity
  8
OBJECT
  6
Continuous
 48
100.0
100
AcDbLine
 10
9227.078405522654
 20
-31579.3343307022
 30
0.0
 11
9227.078255883292
 21
-31591.33433070156
 31
0.0
  0
LINE
  5
4943
330
18
100
AcDbEntity
  8
OBJECT
  6
Continuous
 48
100.0
100
AcDbLine
 10
9127.078405506166
 20
-31579.33378174598
 30
0.0
 11
9127.077632369461
 21
-31641.33378174267
 31
0.0
  0
LINE
  5
4944
330
18
100
AcDbEntity
  8
OBJECT
  6
Continuous
 48
100.0
100
AcDbLine
 10
9057.077270731989
 20
-31670.33339747177
 30
0.0
 11
9087.077270738653
 21
-31670.33356215864
 31
0.0
  0
LINE
  5
4945
330
18
100
AcDbEntity
  8
OBJECT
  6
Continuous
 48
100.0
100
AcDbLine
 10
9057.076273136253
 20
-31750.33339746751
 30
0.0
 11
9087.07627314291
 21
-31750.33356215437
 31
0.0
  0
LINE
  5
4946
330
18
100
AcDbEntity
  8
OBJECT
  6
Continuous
 48
100.0
100
AcDbLine
 10
9457.077475881
 20
-31579.33713769278
 30
0.0
 11
9457.076987991717
 21
-31641.33713769238
 31
0.0
  0
LINE
  5
4947
330
18
100
AcDbEntity
  8
OBJECT
  6
Continuous
 48
100.0
100
AcDbLine
 10
9357.077475874028
 20
-31579.33565273611
 30
0.0
 11
9357.077381443847
 21
-31591.33565273604
 31
0.0
  0
LINE
  5
4948
330
18
100
AcDbEntity
  8
OBJECT
  6
Continuous
 48
100.0
100
AcDbLine
 10
9357.077082414933
 20
-31629.33565273579
 30
0.0
 11
9357.076987984752
 21
-31641.3356527357
 31
0.0
  0
LINE
  5
4949
330
18
100
AcDbEntity
  8
OBJECT
  6
Continuous
 48
100.0
100
AcDbLine
 10
9497.078333620391
 20
-31470.33773167618
 30
0.0
 11
9497.076130249419
 21
-31750.33773167433
 31
0.0
  0
LINE
  5
494A
330
18
100
AcDbEntity
  8
OBJECT
  6
Continuous
 48
100.0
100
AcDbLine
 10
9527.078333624183
 20
-31470.33817716318
 30
0.0
 11
9527.076130253218
 21
-31750.33817716133
 31
0.0
  0
LINE
  5
494B
330
18
100
AcDbEntity
  8
OBJECT
  6
Continuous
 48
100.0
100
AcDbLine
 10
9527.077704089633
 20
-31550.33817716264
 30
0.0
 11
9497.077704085828
 21
-31550.33773167565
 31
0.0
  0
LINE
  5
494C
330
18
100
AcDbEntity
  8
OBJECT
  6
Continuous
 48
100.0
100
AcDbLine
 10
9527.078333624183
 20
-31470.33817716318
 30
0.0
 11
9497.078333620391
 21
-31470.33773167618
 31
0.0
  0
LINE
  5
494D
330
18
100
AcDbEntity
  8
OBJECT
  6
Continuous
 48
100.0
100
AcDbLine
 10
9527.076759787789
 20
-31670.33817716185
 30
0.0
 11
9497.076759783983
 21
-31670.33773167485
 31
0.0
  0
LINE
  5
494E
330
18
100
AcDbEntity
  8
OBJECT
  6
Continuous
 48
100.0
100
AcDbLine
 10
9527.076130253218
 20
-31750.33817716133
 30
0.0
 11
9497.076130249419
 21
-31750.33773167433
 31
0.0
  0
LINE
  5
494F
330
18
100
AcDbEntity
  8
OBJECT
  6
Continuous
 48
100.0
100
AcDbLine
 10
9347.077381440028
 20
-31591.33550424037
 30
0.0
 11
9347.077082411111
 21
-31629.33550424012
 31
0.0
  0
LINE
  5
4950
330
18
100
AcDbEntity
  8
OBJECT
  6
Continuous
 48
100.0
100
AcDbLine
 10
9237.078255888063
 20
-31591.33438559718
 30
0.0
 11
9237.077782030082
 21
-31629.33438559515
 31
0.0
  0
LINE
  5
4951
330
18
100
AcDbEntity
  8
OBJECT
  6
Continuous
 48
100.0
100
AcDbLine
 10
9497.077082420446
 20
-31629.33773167513
 30
0.0
 11
9292.077432223207
 21
-31629.33468751914
 31
0.0
  0
LINE
  5
4952
330
18
100
AcDbEntity
  8
OBJECT
  6
Continuous
 48
100.0
100
AcDbLine
 10
9497.077381449361
 20
-31591.33773167538
 30
0.0
 11
9292.077818666658
 21
-31591.33468752069
 31
0.0
  0
LINE
  5
4953
330
18
100
AcDbEntity
  8
OBJECT
  6
Continuous
 48
100.0
100
AcDbLine
 10
9457.076987991717
 20
-31641.33713769238
 30
0.0
 11
9292.077310188442
 21
-31641.33468751865
 31
0.0
  0
LINE
  5
4954
330
18
100
AcDbEntity
  8
OBJECT
  6
Continuous
 48
100.0
100
AcDbLine
 10
9457.077475881
 20
-31579.33713769278
 30
0.0
 11
9292.077940701432
 21
-31579.33468752118
 31
0.0
  0
ARC
  5
4955
330
18
100
AcDbEntity
  8
OBJECT
  6
HIDDEN2
 48
0.02
100
AcDbCircle
 10
9767.080097776652
 20
-30881.40660976089
 30
0.0
 40
225.0
100
AcDbArc
 50
269.999552155732
 51
89.99955215573207
  0
LINE
  5
4956
330
18
100
AcDbEntity
  8
OBJECT
  6
HIDDEN2
 48
0.02
100
AcDbLine
 10
9767.078339096322
 20
-31106.40660975402
 30
0.0
 11
9617.07833912669
 21
-31106.40143802008
 31
0.0
  0
LINE
  5
4957
330
18
100
AcDbEntity
  8
OBJECT
  6
Continuous
 48
100.0
100
AcDbLine
 10
9767.079883276393
 20
-31191.39656491037
 30
0.0
 11
9617.085101120983
 21
-31191.39424120415
 31
0.0
  0
LINE
  5
4958
330
18
100
AcDbEntity
  8
OBJECT
  6
HIDDEN2
 48
0.02
100
AcDbLine
 10
9617.081856487345
 20
-30656.40143803382
 30
0.0
 11
9767.081856456984
 21
-30656.40660976776
 31
0.0
  0
LINE
  5
4959
330
18
100
AcDbEntity
  8
OBJECT
  6
CENTER2
 48
0.009
100
AcDbLine
 10
9452.074520649961
 20
-30881.40004363035
 30
0.0
 11
8332.086518736014
 21
-30881.39174023791
 31
0.0
  0
LINE
  5
495A
330
18
100
AcDbEntity
  8
OBJECT
  6
Continuous
 48
100.0
100
AcDbLine
 10
31776.5816041139
 20
-31610.51384204833
 30
0.0
 11
31292.07762477288
 21
-31610.50664737417
 31
0.0
  0
ARC
  5
495C
330
18
100
AcDbEntity
  8
OBJECT
  6
Continuous
 48
100.0
100
AcDbCircle
 10
31617.08009713495
 20
-30881.5733978812
 30
0.0
 40
309.9928032175755
100
AcDbArc
 50
89.99765286864686
 51
270.0009247594486
  0
ARC
  5
495D
330
18
100
AcDbEntity
  8
OBJECT
  6
Continuous
 48
100.0
100
AcDbCircle
 10
31767.09449068181
 20
-30881.57572189124
 30
0.0
 40
309.9928032175755
100
AcDbArc
 50
269.9972999980078
 51
90.00057188880962
  0
LINE
  5
495E
330
18
100
AcDbEntity
  8
OBJECT
  6
CENTER2
 48
0.009
100
AcDbLine
 10
31132.0920952114
 20
-30881.56950238773
 30
0.0
 11
32252.0800971183
 21
-30881.57870744743
 31
0.0
  0
LINE
  5
495F
330
18
100
AcDbEntity
  8
OBJECT
  6
Continuous
 48
100.0
100
AcDbLine
 10
31767.09139653741
 20
-30571.5829186891
 30
0.0
 11
31617.09279604286
 21
-30571.58059492373
 31
0.0
  0
LINE
  5
4960
330
18
100
AcDbEntity
  8
OBJECT
  6
HIDDEN2
 48
0.02
100
AcDbLine
 10
31617.0818558153
 20
-30656.57339788807
 30
0.0
 11
31767.08185578493
 21
-30656.57856962201
 31
0.0
  0
LINE
  5
4961
330
18
100
AcDbEntity
  8
OBJECT
  6
Continuous
 48
100.0
100
AcDbLine
 10
31767.07988260434
 20
-31191.56852476462
 30
0.0
 11
31617.08510044892
 21
-31191.5662010584
 31
0.0
  0
LINE
  5
4962
330
18
100
AcDbEntity
  8
OBJECT
  6
HIDDEN2
 48
0.02
100
AcDbLine
 10
31767.07833842427
 20
-31106.57856960826
 30
0.0
 11
31617.07833845463
 21
-31106.57339787433
 31
0.0
  0
LINE
  5
4963
330
18
100
AcDbEntity
  8
OBJECT
  6
CENTER2
 48
0.009
100
AcDbLine
 10
31692.07978036779
 20
-31366.57213555867
 30
0.0
 11
31692.09480752408
 21
-30396.57213577391
 31
0.0
  0
LINE
  5
4964
330
18
100
AcDbEntity
  8
OBJECT
  6
CENTER2
 48
0.009
100
AcDbLine
 10
30892.07925298247
 20
-31366.56588246894
 30
0.0
 11
30892.07938955878
 21
-30396.56588256778
 31
0.0
  0
ARC
  5
4965
330
18
100
AcDbEntity
  8
OBJECT
  6
Continuous
 48
100.0
100
AcDbCircle
 10
30817.07212448786
 20
-30881.56829617725
 30
0.0
 40
309.9928032175755
100
AcDbArc
 50
89.99853242265455
 51
270.0018043134563
  0
ARC
  5
4966
330
18
100
AcDbEntity
  8
OBJECT
  6
Continuous
 48
100.0
100
AcDbCircle
 10
30967.08651805271
 20
-30881.56831729933
 30
0.0
 40
309.9928032175755
100
AcDbArc
 50
269.9981795520155
 51
90.00145144281729
  0
LINE
  5
4967
330
18
100
AcDbEntity
  8
OBJECT
  6
Continuous
 48
100.0
100
AcDbLine
 10
30817.0800646611
 20
-30571.57549306137
 30
0.0
 11
30967.07866517365
 21
-30571.57551418122
 31
0.0
  0
LINE
  5
496B
330
18
100
AcDbEntity
  8
OBJECT
  6
Continuous
 48
100.0
100
AcDbLine
 10
30807.57364538575
 20
-31610.50398765947
 30
0.0
 11
31292.07762477288
 21
-31610.50664737416
 31
0.0
  0
LINE
  5
496C
330
18
100
AcDbEntity
  8
OBJECT
  6
CENTER2
 48
0.009
100
AcDbLine
 10
31452.07451997791
 20
-30881.57200348459
 30
0.0
 11
30332.08651806396
 21
-30881.56370009216
 31
0.0
  0
ARC
  5
496D
330
18
100
AcDbEntity
  8
OBJECT
  6
HIDDEN2
 48
0.02
100
AcDbCircle
 10
30817.08651802055
 20
-30881.57114412616
 30
0.0
 40
225.0
100
AcDbArc
 50
89.99955215573207
 51
269.9995521557321
  0
ARC
  5
496E
330
18
100
AcDbEntity
  8
OBJECT
  6
HIDDEN2
 48
0.02
100
AcDbCircle
 10
30967.08651805271
 20
-30881.56831729933
 30
0.0
 40
225.0
100
AcDbArc
 50
269.999552155732
 51
89.99955215573203
  0
LINE
  5
496F
330
18
100
AcDbEntity
  8
OBJECT
  6
HIDDEN2
 48
0.02
100
AcDbLine
 10
30817.08475934023
 20
-31106.57114411929
 30
0.0
 11
30967.08475937238
 21
-31106.56831729245
 31
0.0
  0
LINE
  5
4970
330
18
100
AcDbEntity
  8
OBJECT
  6
Continuous
 48
100.0
100
AcDbLine
 10
30817.08188653649
 20
-31191.56109924112
 30
0.0
 11
30967.0766687099
 21
-31191.56112036043
 31
0.0
  0
LINE
  5
4971
330
18
100
AcDbEntity
  8
OBJECT
  6
HIDDEN2
 48
0.02
100
AcDbLine
 10
30967.08827673303
 20
-30656.5683173062
 30
0.0
 11
30817.08827670087
 21
-30656.57114413303
 31
0.0
  0
ARC
  5
4972
330
18
100
AcDbEntity
  8
OBJECT
  6
HIDDEN2
 48
0.02
100
AcDbCircle
 10
31617.08009713496
 20
-30881.5733978812
 30
0.0
 40
225.0
100
AcDbArc
 50
89.99955215573214
 51
269.9995521557322
  0
LINE
  5
4973
330
18
100
AcDbEntity
  8
OBJECT
  6
Continuous
 48
100.0
100
AcDbLine
 10
31457.07747520895
 20
-31579.50909754703
 30
0.0
 11
31292.07794002938
 21
-31579.50664737542
 31
0.0
  0
LINE
  5
4974
330
18
100
AcDbEntity
  8
OBJECT
  6
Continuous
 48
100.0
100
AcDbLine
 10
31457.07698731966
 20
-31641.50909754662
 30
0.0
 11
31292.07730951639
 21
-31641.50664737289
 31
0.0
  0
LINE
  5
4975
330
18
100
AcDbEntity
  8
OBJECT
  6
Continuous
 48
100.0
100
AcDbLine
 10
31497.0773807773
 20
-31591.50969152963
 30
0.0
 11
31292.0778179946
 21
-31591.50664737494
 31
0.0
  0
LINE
  5
4976
330
18
100
AcDbEntity
  8
OBJECT
  6
Continuous
 48
100.0
100
AcDbLine
 10
31497.07708174839
 20
-31629.50969152938
 30
0.0
 11
31292.07743155115
 21
-31629.50664737339
 31
0.0
  0
LINE
  5
4977
330
18
100
AcDbEntity
  8
OBJECT
  6
Continuous
 48
100.0
100
AcDbLine
 10
31057.0762724642
 20
-31750.50535732175
 30
0.0
 11
31087.07627247085
 21
-31750.50552200862
 31
0.0
  0
LINE
  5
4978
330
18
100
AcDbEntity
  8
OBJECT
  6
Continuous
 48
100.0
100
AcDbLine
 10
31057.07727005993
 20
-31670.50535732602
 30
0.0
 11
31087.0772700666
 21
-31670.50552201289
 31
0.0
  0
LINE
  5
4979
330
18
100
AcDbEntity
  8
OBJECT
  6
Continuous
 48
100.0
100
AcDbLine
 10
31127.07840483411
 20
-31579.50574160023
 30
0.0
 11
31127.07763169741
 21
-31641.50574159692
 31
0.0
  0
LINE
  5
497A
330
18
100
AcDbEntity
  8
OBJECT
  6
Continuous
 48
100.0
100
AcDbLine
 10
31237.07825521601
 20
-31591.50634545142
 30
0.0
 11
31237.07778135803
 21
-31629.5063454494
 31
0.0
  0
LINE
  5
497B
330
18
100
AcDbEntity
  8
OBJECT
  6
Continuous
 48
100.0
100
AcDbLine
 10
31227.0784048506
 20
-31579.50629055644
 30
0.0
 11
31227.07825521124
 21
-31591.5062905558
 31
0.0
  0
LINE
  5
497C
330
18
100
AcDbEntity
  8
OBJECT
  6
Continuous
 48
100.0
100
AcDbLine
 10
31227.07778135325
 20
-31629.50629055377
 30
0.0
 11
31227.07763171389
 21
-31641.50629055313
 31
0.0
  0
LINE
  5
497D
330
18
100
AcDbEntity
  8
OBJECT
  6
Continuous
 48
100.0
100
AcDbLine
 10
31127.07763169741
 20
-31641.50574159692
 30
0.0
 11
31292.07730951639
 21
-31641.50664737289
 31
0.0
  0
LINE
  5
497E
330
18
100
AcDbEntity
  8
OBJECT
  6
Continuous
 48
100.0
100
AcDbLine
 10
31127.07840483411
 20
-31579.50574160023
 30
0.0
 11
31292.07794002939
 21
-31579.50664737542
 31
0.0
  0
LINE
  5
497F
330
18
100
AcDbEntity
  8
OBJECT
  6
Continuous
 48
100.0
100
AcDbLine
 10
31347.07738076798
 20
-31591.50746409462
 30
0.0
 11
31347.07708173905
 21
-31629.50746409436
 31
0.0
  0
LINE
  5
4980
330
18
100
AcDbEntity
  8
OBJECT
  6
Continuous
 48
100.0
100
AcDbLine
 10
31057.0797640493
 20
-31470.5053573367
 30
0.0
 11
31087.07976405595
 21
-31470.50552202356
 31
0.0
  0
LINE
  5
4981
330
18
100
AcDbEntity
  8
OBJECT
  6
Continuous
 48
100.0
100
AcDbLine
 10
31057.07876645355
 20
-31550.50535733243
 30
0.0
 11
31087.07876646021
 21
-31550.50552201929
 31
0.0
  0
LINE
  5
4982
330
18
100
AcDbEntity
  8
OBJECT
  6
Continuous
 48
100.0
100
AcDbLine
 10
31087.07778133442
 20
-31629.50552201508
 30
0.0
 11
31292.07743155117
 21
-31629.50664737339
 31
0.0
  0
LINE
  5
4983
330
18
100
AcDbEntity
  8
OBJECT
  6
Continuous
 48
100.0
100
AcDbLine
 10
31087.07825519239
 20
-31591.5055220171
 30
0.0
 11
31292.07781799462
 21
-31591.50664737494
 31
0.0
  0
LINE
  5
4984
330
18
100
AcDbEntity
  8
OBJECT
  6
Continuous
 48
100.0
100
AcDbLine
 10
31087.07976405595
 20
-31470.50552202356
 30
0.0
 11
31087.07627247085
 21
-31750.50552200862
 31
0.0
  0
LINE
  5
4985
330
18
100
AcDbEntity
  8
OBJECT
  6
Continuous
 48
100.0
100
AcDbLine
 10
31057.0797640493
 20
-31470.5053573367
 30
0.0
 11
31057.0762724642
 21
-31750.50535732175
 31
0.0
  0
LINE
  5
4986
330
18
100
AcDbEntity
  8
OBJECT
  6
Continuous
 48
100.0
100
AcDbLine
 10
31527.07612958116
 20
-31750.51013701557
 30
0.0
 11
31497.07612957736
 21
-31750.50969152857
 31
0.0
  0
LINE
  5
4987
330
18
100
AcDbEntity
  8
OBJECT
  6
Continuous
 48
100.0
100
AcDbLine
 10
31527.07675911573
 20
-31670.5101370161
 30
0.0
 11
31497.07675911193
 21
-31670.5096915291
 31
0.0
  0
LINE
  5
4988
330
18
100
AcDbEntity
  8
OBJECT
  6
Continuous
 48
100.0
100
AcDbLine
 10
31527.07833295213
 20
-31470.51013701742
 30
0.0
 11
31497.07833294833
 21
-31470.50969153042
 31
0.0
  0
LINE
  5
4989
330
18
100
AcDbEntity
  8
OBJECT
  6
Continuous
 48
100.0
100
AcDbLine
 10
31527.07770341757
 20
-31550.51013701689
 30
0.0
 11
31497.07770341377
 21
-31550.50969152989
 31
0.0
  0
LINE
  5
498A
330
18
100
AcDbEntity
  8
OBJECT
  6
Continuous
 48
100.0
100
AcDbLine
 10
31527.07833295213
 20
-31470.51013701742
 30
0.0
 11
31527.07612958116
 21
-31750.51013701557
 31
0.0
  0
LINE
  5
498B
330
18
100
AcDbEntity
  8
OBJECT
  6
Continuous
 48
100.0
100
AcDbLine
 10
31497.07833294833
 20
-31470.50969153042
 30
0.0
 11
31497.07612957736
 21
-31750.50969152857
 31
0.0
  0
LINE
  5
498C
330
18
100
AcDbEntity
  8
OBJECT
  6
Continuous
 48
100.0
100
AcDbLine
 10
31357.07708174288
 20
-31629.50761259004
 30
0.0
 11
31357.0769873127
 21
-31641.50761258995
 31
0.0
  0
LINE
  5
498D
330
18
100
AcDbEntity
  8
OBJECT
  6
Continuous
 48
100.0
100
AcDbLine
 10
31357.07747520197
 20
-31579.50761259036
 30
0.0
 11
31357.07738077179
 21
-31591.50761259028
 31
0.0
  0
LINE
  5
498E
330
18
100
AcDbEntity
  8
OBJECT
  6
Continuous
 48
100.0
100
AcDbLine
 10
31457.07747520895
 20
-31579.50909754703
 30
0.0
 11
31457.07698731966
 21
-31641.50909754662
 31
0.0
  0
ARC
  5
4990
330
18
100
AcDbEntity
  8
OBJECT
  6
HIDDEN2
 48
0.02
100
AcDbCircle
 10
31767.0800971046
 20
-30881.57856961514
 30
0.0
 40
225.0
100
AcDbArc
 50
269.999552155732
 51
89.99955215573207
  0
MTEXT
  5
4991
330
18
100
AcDbEntity
  8
OBJECT
  6
Continuous
 48
100.0
100
AcDbMText
 10
30671.34565371322
 20
-30144.92476279767
 30
0.0
 40
100.0
 41
0.0017
 71
     1
 72
     5
  1
(OFF SET TYPE)
 73
     1
 44
1.0
  0
MTEXT
  5
4992
330
18
100
AcDbEntity
  8
OBJECT
  6
Continuous
 48
100.0
100
AcDbMText
 10
30630.99945942576
 20
-30327.21483298275
 30
0.0
 40
180.0
 41
267.0601
 71
     1
 72
     5
  1
M
 73
     1
 44
1.0
  0
MTEXT
  5
4993
330
18
100
AcDbEntity
  8
OBJECT
  6
Continuous
 48
100.0
100
AcDbMText
 10
31153.16523193821
 20
-30327.22248581371
 30
0.0
 40
180.0
 41
267.0601
 71
     1
 72
     5
  1
H
210
0.0
220
0.0
230
-1.0
 11
-0.9999999995704067
 21
0.0000293118827591
 31
0.0
 73
     1
 44
1.0
  0
MTEXT
  5
4994
330
18
100
AcDbEntity
  8
OBJECT
  6
Continuous
 48
100.0
100
AcDbMText
 10
31431.01487739601
 20
-30327.22041739812
 30
0.0
 40
180.0
 41
267.0601
 71
     1
 72
     5
  1
M
 73
     1
 44
1.0
  0
MTEXT
  5
4995
330
18
100
AcDbEntity
  8
OBJECT
  6
Continuous
 48
100.0
100
AcDbMText
 10
31953.18064990847
 20
-30327.22807022908
 30
0.0
 40
180.0
 41
267.0601
 71
     1
 72
     5
  1
H
210
0.0
220
0.0
230
-1.0
 11
-0.9999999995704067
 21
0.0000293118827591
 31
0.0
 73
     1
 44
1.0
  0
MTEXT
  5
4996
330
18
100
AcDbEntity
  8
OBJECT
  6
Continuous
 48
100.0
100
AcDbMText
 10
9953.180650444455
 20
-30327.07450176589
 30
0.0
 40
180.0
 41
267.0601
 71
     1
 72
     5
  1
H
210
0.0
220
0.0
230
-1.0
 11
-0.9999999995704067
 21
0.0000293118827591
 31
0.0
 73
     1
 44
1.0
  0
MTEXT
  5
4997
330
18
100
AcDbEntity
  8
OBJECT
  6
Continuous
 48
100.0
100
AcDbMText
 10
9431.014877931998
 20
-30327.06684893494
 30
0.0
 40
180.0
 41
267.0601
 71
     1
 72
     5
  1
M
 73
     1
 44
1.0
  0
MTEXT
  5
4998
330
18
100
AcDbEntity
  8
OBJECT
  6
Continuous
 48
100.0
100
AcDbMText
 10
9153.165232474195
 20
-30327.06891735052
 30
0.0
 40
180.0
 41
267.0601
 71
     1
 72
     5
  1
H
210
0.0
220
0.0
230
-1.0
 11
-0.9999999995704067
 21
0.0000293118827591
 31
0.0
 73
     1
 44
1.0
  0
MTEXT
  5
4999
330
18
100
AcDbEntity
  8
OBJECT
  6
Continuous
 48
100.0
100
AcDbMText
 10
8630.999459961739
 20
-30327.06126451957
 30
0.0
 40
180.0
 41
267.0601
 71
     1
 72
     5
  1
M
 73
     1
 44
1.0
  0
MTEXT
  5
499A
330
18
100
AcDbEntity
  8
OBJECT
  6
Continuous
 48
100.0
100
AcDbMText
 10
8671.345654249199
 20
-30144.77119433448
 30
0.0
 40
100.0
 41
0.0017
 71
     1
 72
     5
  1
(OFF SET TYPE)
 73
     1
 44
1.0
  0
LEADER
  5
499B
330
18
100
AcDbEntity
  8
DIM
  6
Continuous
 48
100.0
100
AcDbLeader
  3
STANDARD_WS
 73
     0
 74
     0
 75
     1
 40
150.0
 41
2695.000000000001
 76
     3
 10
31291.91039970413
 20
-11608.35954132683
 30
0.0
 10
31706.19223543352
 20
-10316.28819766434
 30
0.0
 10
32081.19223543352
 20
-10316.28819766434
 30
0.0
340
499C
1001
ACAD
1000
DSTYLE
1002
{
1070
     5
1000

1070
    40
1040
150.0
1070
    42
1040
2.0
1070
   271
1070
     1
1002
}
  0
MTEXT
  5
499C
102
{ACAD_REACTORS
330
499B
102
}
330
18
100
AcDbEntity
  8
DIM
  6
Continuous
 48
100.0
100
AcDbMText
 10
32174.94223543352
 20
-10147.53819766434
 30
0.0
 40
150.0
 41
0.0
 71
     4
 72
     1
  1
\A1;JIS 50t LIFTING PIECE
 73
     1
 44
1.0
  0
LEADER
  5
499D
330
18
100
AcDbEntity
  8
DIM
  6
Continuous
 48
100.0
100
AcDbLeader
  3
STANDARD_WS
 73
     0
 74
     0
 75
     1
 40
150.0
 41
2695.000000000001
 76
     3
 10
9291.913124513037
 20
-11608.31897337072
 30
0.0
 10
9706.19496024242
 20
-10316.24762970823
 30
0.0
 10
10081.19496024242
 20
-10316.24762970823
 30
0.0
340
499E
1001
ACAD
1000
DSTYLE
1002
{
1070
     5
1000

1070
    40
1040
150.0
1070
    42
1040
2.0
1070
   271
1070
     1
1002
}
  0
MTEXT
  5
499E
102
{ACAD_REACTORS
330
499D
102
}
330
18
100
AcDbEntity
  8
DIM
  6
Continuous
 48
100.0
100
AcDbMText
 10
10174.94496024242
 20
-10147.49762970823
 30
0.0
 40
150.0
 41
0.0
 71
     4
 72
     1
  1
\A1;JIS 50t LIFTING PIECE
 73
     1
 44
1.0
  0
DIMENSION
  5
49BA
330
18
100
AcDbEntity
  8
DIM
  6
Continuous
 48
100.0
100
AcDbDimension
  2
*D19
 10
27114.11885066403
 20
-6995.063512922198
 30
0.0
 11
26832.86885066403
 21
-8130.063512921516
 31
0.0
 70
    32
 71
     5
 42
-1.0
  3
STANDARD_WS
100
AcDbAlignedDimension
 13
27175.76833050316
 23
-9265.063512920844
 33
0.0
 14
27175.76833050316
 24
-6995.063512922198
 34
0.0
 50
90.0
100
AcDbRotatedDimension
1001
ACAD
1000
DSTYLE
1002
{
1070
    40
1040
150.0
1070
    42
1040
2.0
1070
   271
1070
     1
1002
}
  0
MTEXT
  5
4AB6
330
18
100
AcDbEntity
  8
BHD
  6
Continuous
 48
100.0
100
AcDbMText
 10
8911.235999200126
 20
-14639.38016254434
 30
0.0
 40
250.0
 41
1600.0
 71
     1
 72
     5
  1
W.T BHD
 11
0.0000023267948964
 21
0.999999999997293
 31
0.0
 73
     1
 44
1.0
  0
MTEXT
  5
4AB7
330
18
100
AcDbEntity
  8
BHD
  6
Continuous
 48
100.0
100
AcDbMText
 10
18911.23599901993
 20
-14639.48710201199
 30
0.0
 40
250.0
 41
1600.0
 71
     1
 72
     5
  1
W.T BHD
 11
0.0000023267948964
 21
0.999999999997293
 31
0.0
 73
     1
 44
1.0
  0
MTEXT
  5
4AB8
330
18
100
AcDbEntity
  8
BHD
  6
Continuous
 48
100.0
100
AcDbMText
 10
30911.57065253893
 20
-14639.61543295194
 30
0.0
 40
250.0
 41
1600.0
 71
     1
 72
     5
  1
W.T BHD
 11
0.0000023267948964
 21
0.999999999997293
 31
0.0
 73
     1
 44
1.0
  0
LINE
  5
4ABA
330
18
100
AcDbEntity
  8
TANK
  6
CENTER2
 48
0.05
100
AcDbLine
 10
5511.523906480218
 20
-20001.01636469455
 30
0.0
 11
9292.122784116429
 21
-25781.37975801062
 31
0.0
  0
LINE
  5
4ABB
330
18
100
AcDbEntity
  8
TANK
  6
CENTER2
 48
0.05
100
AcDbLine
 10
9292.122784116429
 20
-25781.37975801062
 30
0.0
 11
19292.16466623054
 21
-19781.44245611019
 31
0.0
  0
LINE
  5
4ABC
330
18
100
AcDbEntity
  8
TANK
  6
CENTER2
 48
0.05
100
AcDbLine
 10
19292.16466623054
 20
-19781.44245611019
 30
0.0
 11
31292.12278363004
 21
-25781.52622058029
 31
0.0
  0
LINE
  5
4ABD
330
18
100
AcDbEntity
  8
TANK
  6
CENTER2
 48
0.05
100
AcDbLine
 10
31292.12278363004
 20
-25781.52622058029
 30
0.0
 11
35072.18407754963
 21
-20001.22233217209
 31
0.0
  0
LINE
  5
4ABE
330
18
100
AcDbEntity
  8
TANK
  6
CENTER2
 48
0.05
100
AcDbLine
 10
35291.81756616941
 20
-25781.57211339462
 30
0.0
 11
31292.16466593818
 21
-19781.52622071094
 31
0.0
  0
LINE
  5
4ABF
330
18
100
AcDbEntity
  8
TANK
  6
CENTER2
 48
0.05
100
AcDbLine
 10
31292.16466593818
 20
-19781.52622071094
 30
0.0
 11
19292.12278384362
 21
-25781.45374171913
 31
0.0
  0
LINE
  5
4AC0
330
18
100
AcDbEntity
  8
TANK
  6
CENTER2
 48
0.05
100
AcDbLine
 10
19292.12278384362
 20
-25781.45374171913
 30
0.0
 11
9292.164666474171
 21
-19781.37265226201
 31
0.0
  0
LINE
  5
4AC1
330
18
100
AcDbEntity
  8
TANK
  6
CENTER2
 48
0.05
100
AcDbLine
 10
9292.164666474171
 20
-19781.37265226201
 30
0.0
 11
5291.817567002039
 21
-25781.34526200787
 31
0.0
  0
LINE
  5
4AC2
330
18
100
AcDbEntity
  8
TANK
  6
CENTER2
 48
0.05
100
AcDbLine
 10
5291.934281200649
 20
-12013.40274376755
 30
0.0
 11
9291.905420702141
 21
-14813.45172258355
 31
0.0
  0
LINE
  5
4AC4
330
18
100
AcDbEntity
  8
TANK
  6
CENTER2
 48
0.05
100
AcDbLine
 10
9291.905420702141
 20
-14813.45172258355
 30
0.0
 11
19291.91039972454
 21
-12113.33741335077
 31
0.0
  0
LINE
  5
4AC5
330
18
100
AcDbEntity
  8
TANK
  6
CENTER2
 48
0.05
100
AcDbLine
 10
19291.91039972454
 20
-12113.33741335077
 30
0.0
 11
31291.90542066473
 21
-14813.49229053966
 31
0.0
  0
LINE
  5
4AC6
330
18
100
AcDbEntity
  8
TANK
  6
CENTER2
 48
0.05
100
AcDbLine
 10
31291.90542066473
 20
-14813.49229053966
 30
0.0
 11
35291.9113293054
 21
-12013.59081277063
 31
0.0
  0
LINE
  5
4AC7
330
18
100
AcDbEntity
  8
TANK
  6
CENTER2
 48
0.05
100
AcDbLine
 10
34268.61930157111
 20
-13944.21062484057
 30
0.0
 11
31291.91039970413
 21
-12113.35954132683
 31
0.0
  0
LINE
  5
4AC8
330
18
100
AcDbEntity
  8
TANK
  6
CENTER2
 48
0.05
100
AcDbLine
 10
31291.91039970413
 20
-12113.35954132683
 30
0.0
 11
19291.90542068513
 21
-14813.4701625636
 31
0.0
  0
LINE
  5
4AC9
330
18
100
AcDbEntity
  8
TANK
  6
CENTER2
 48
0.05
100
AcDbLine
 10
19291.90542068513
 20
-14813.4701625636
 30
0.0
 11
9291.910399741544
 21
-12113.31897337072
 31
0.0
  0
LINE
  5
4ACA
330
18
100
AcDbEntity
  8
TANK
  6
CENTER2
 48
0.05
100
AcDbLine
 10
9291.910399741544
 20
-12113.31897337072
 30
0.0
 11
6791.897861741549
 21
-14113.32619277054
 31
0.0
  0
LINE
  5
4ACB
330
18
100
AcDbEntity
  8
TANK
  6
CENTER2
 48
0.05
100
AcDbLine
 10
9292.075885918819
 20
-31781.38686372211
 30
0.0
 11
5291.81756692953
 21
-25781.35506253033
 31
0.0
  0
LINE
  5
4ACC
330
18
100
AcDbEntity
  8
TANK
  6
CENTER2
 48
0.05
100
AcDbLine
 10
5511.438376350019
 20
-31561.68721014882
 30
0.0
 11
9292.122784116431
 21
-25781.37975801061
 31
0.0
  0
LINE
  5
4ACD
330
18
100
AcDbEntity
  8
TANK
  6
CENTER2
 48
0.05
100
AcDbLine
 10
19292.12278384362
 20
-25781.45374171912
 30
0.0
 11
9292.075885918819
 21
-31781.38686372211
 31
0.0
  0
LINE
  5
4ACE
330
18
100
AcDbEntity
  8
TANK
  6
CENTER2
 48
0.05
100
AcDbLine
 10
9292.122784116431
 20
-25781.37975801061
 30
0.0
 11
19292.07588561334
 21
-31781.46502729094
 31
0.0
  0
LINE
  5
4ACF
330
18
100
AcDbEntity
  8
TANK
  6
CENTER2
 48
0.05
100
AcDbLine
 10
31292.07588524676
 20
-31781.55882359061
 30
0.0
 11
19292.12278384362
 21
-25781.45374171912
 31
0.0
  0
LINE
  5
4AD0
330
18
100
AcDbEntity
  8
TANK
  6
CENTER2
 48
0.05
100
AcDbLine
 10
19292.07588561334
 20
-31781.46502729094
 30
0.0
 11
31292.12278338883
 21
-25781.55882375837
 31
0.0
  0
LINE
  5
4AD1
330
18
100
AcDbEntity
  8
TANK
  6
CENTER2
 48
0.05
100
AcDbLine
 10
35291.81756616941
 20
-25781.57211339462
 30
0.0
 11
31292.07588524676
 21
-31781.55882359061
 31
0.0
  0
LINE
  5
4AD2
330
18
100
AcDbEntity
  8
TANK
  6
CENTER2
 48
0.05
100
AcDbLine
 10
31292.12278338883
 20
-25781.55882375837
 30
0.0
 11
35072.09854723102
 21
-31561.91864412436
 31
0.0
  0
VIEWPORT
  5
36
330
15
100
AcDbEntity
 67
     1
  8
0
100
AcDbViewport
 10
342.1038605523829
 20
202.3513109338121
 30
0.0
 40
991.696075763861
 41
522.6099999022409
 68
     1
 69
     1
 12
342.1038605523829
 22
202.3513109338121
 13
0.0
 23
0.0
 14
10.0
 24
10.0
 15
10.0
 25
10.0
 16
0.0
 26
0.0
 36
1.0
 17
0.0
 27
0.0
 37
0.0
 42
50.0
 43
0.0
 44
0.0
 45
522.6099999022409
 50
0.0
 51
0.0
 72
   100
 90
    32800
  1

281
     0
 71
     1
 74
     0
110
0.0
120
0.0
130
0.0
111
1.0
121
0.0
131
0.0
112
0.0
122
1.0
132
0.0
 79
     0
146
0.0
170
     0
  0
VIEWPORT
  5
E4
330
15
100
AcDbEntity
 67
     1
  8
ZUWAKU
100
AcDbViewport
 10
297.0043951214808
 20
210.2518772484058
 30
0.0
 40
592.0087902429616
 41
415.5037544968115
 68
     2
 69
     2
 12
22436.72960732418
 22
-18573.97830673128
 13
0.0
 23
0.0
 14
10.0
 24
10.0
 15
10.0
 25
10.0
 16
0.0
 26
0.0
 36
1.0
 17
0.0
 27
0.0
 37
0.0
 42
50.0
 43
0.0
 44
0.0
 45
31912.08271886036
 50
0.0
 51
0.0
 72
   100
 90
    32800
  1

281
     0
 71
     1
 74
     0
110
0.0
120
0.0
130
0.0
111
1.0
121
0.0
131
0.0
112
0.0
122
1.0
132
0.0
 79
     0
146
0.0
170
     0
  0
LINE
  5
EC
330
15
100
AcDbEntity
 67
     1
  8
ZUWAKU
100
AcDbLine
 10
25.0
 20
10.0
 30
0.0
 11
25.0
 21
410.0
 31
0.0
  0
LINE
  5
ED
330
15
100
AcDbEntity
 67
     1
  8
ZUWAKU
100
AcDbLine
 10
584.0
 20
10.0
 30
0.0
 11
25.0
 21
10.0
 31
0.0
  0
LINE
  5
EE
330
15
100
AcDbEntity
 67
     1
  8
ZUWAKU
100
AcDbLine
 10
584.0
 20
410.0
 30
0.0
 11
584.0
 21
10.0
 31
0.0
  0
LINE
  5
EF
330
15
100
AcDbEntity
 67
     1
  8
ZUWAKU
100
AcDbLine
 10
25.0
 20
410.0
 30
0.0
 11
584.0
 21
410.0
 31
0.0
  0
LINE
  5
163
330
15
100
AcDbEntity
 67
     1
  8
ZUWAKU
 62
     0
100
AcDbLine
 10
522.7517730496447
 20
49.00000000000034
 30
0.0
 11
584.0
 21
49.00000000000036
 31
0.0
  0
LINE
  5
164
330
15
100
AcDbEntity
 67
     1
  8
ZUWAKU
 62
     0
100
AcDbLine
 10
522.7517730496447
 20
13.00000000000004
 30
0.0
 11
584.0
 21
13.00000000000004
 31
0.0
  0
LINE
  5
165
330
15
100
AcDbEntity
 67
     1
  8
ZUWAKU
 62
     0
100
AcDbLine
 10
522.7517730496447
 20
37.00000000000024
 30
0.0
 11
584.0
 21
37.00000000000024
 31
0.0
  0
LINE
  5
166
330
15
100
AcDbEntity
 67
     1
  8
ZUWAKU
 62
     0
100
AcDbLine
 10
522.7517730496447
 20
22.00000000000012
 30
0.0
 11
584.0
 21
22.00000000000012
 31
0.0
  0
LINE
  5
167
330
15
100
AcDbEntity
 67
     1
  8
ZUWAKU
 62
     0
100
AcDbLine
 10
454.2978723404242
 20
10.0
 30
0.0
 11
584.0
 21
10.0
 31
0.0
  0
LINE
  5
168
330
15
100
AcDbEntity
 67
     1
  8
ZUWAKU
 62
     0
100
AcDbLine
 10
584.0
 20
49.00000000000036
 30
0.0
 11
522.7517730496447
 21
49.00000000000034
 31
0.0
  0
LINE
  5
16E
330
15
100
AcDbEntity
 67
     1
  8
ZUWAKU
 62
     0
100
AcDbLine
 10
522.7517730496447
 20
49.00000000000036
 30
0.0
 11
522.7517730496447
 21
10.0
 31
0.0
  0
LINE
  5
16F
330
15
100
AcDbEntity
 67
     1
  8
ZUWAKU
 62
     0
100
AcDbLine
 10
564.014184397163
 20
22.00000000000008
 30
0.0
 11
564.014184397163
 21
10.0
 31
0.0
  0
LINE
  5
170
330
15
100
AcDbEntity
 67
     1
  8
ZUWAKU
 62
     0
100
AcDbLine
 10
574.6524822695037
 20
22.00000000000008
 30
0.0
 11
574.6524822695037
 21
10.0
 31
0.0
  0
TEXT
  5
173
330
15
100
AcDbEntity
 67
     1
  8
ZUWAKU
 62
     0
100
AcDbText
 10
556.9657204784495
 20
10.48329012996929
 30
0.0
 40
1.791674070777747
  1
製図
  7
ADESK1
 72
     1
 11
558.8171170182532
 21
10.48329012996929
 31
0.0
100
AcDbText
  0
TEXT
  5
174
330
15
100
AcDbEntity
 67
     1
  8
ZUWAKU
 62
     0
100
AcDbText
 10
567.5442958817639
 20
10.48329012996929
 30
0.0
 40
1.791674070777747
  1
設計
  7
ADESK1
 72
     1
 11
569.4554148905935
 21
10.48329012996929
 31
0.0
100
AcDbText
  0
TEXT
  5
175
330
15
100
AcDbEntity
 67
     1
  8
ZUWAKU
 62
     0
100
AcDbText
 10
577.4929433347957
 20
10.55220101068186
 30
0.0
 40
1.791674070777747
  1
照査
  7
ADESK1
 72
     1
 11
579.4040623436253
 21
10.55220101068186
 31
0.0
100
AcDbText
  0
LINE
  5
17F
330
15
100
AcDbEntity
 67
     1
  8
ZUWAKU
 62
     0
100
AcDbLine
 10
536.7003315772742
 20
49.00000000000036
 30
0.0
 11
536.7003315772742
 21
22.00000000000012
 31
0.0
  0
LINE
  5
181
330
15
100
AcDbEntity
 67
     1
  8
ZUWAKU
 62
     0
100
AcDbLine
 10
584.0
 20
49.00000000000036
 30
0.0
 11
584.0
 21
10.0
 31
0.0
  0
LINE
  5
182
330
15
100
AcDbEntity
 67
     1
  8
ZUWAKU
 62
     0
100
AcDbLine
 10
584.0
 20
10.0
 30
0.0
 11
584.0
 21
49.00000000000036
 31
0.0
  0
LINE
  5
184
330
15
100
AcDbEntity
 67
     1
  8
ZUWAKU
100
AcDbLine
 10
522.7517730496447
 20
49.00000000000035
 30
0.0
 11
522.7517730496447
 21
207.9063163388383
 31
0.0
  0
LINE
  5
185
330
15
100
AcDbEntity
 67
     1
  8
ZUWAKU
100
AcDbLine
 10
522.7517730496447
 20
207.9063163388383
 30
0.0
 11
584.0
 21
207.9063163388383
 31
0.0
  0
LINE
  5
187
330
15
100
AcDbEntity
 67
     1
  8
ZUWAKU
 62
     0
100
AcDbLine
 10
553.3758865248223
 20
22.00000000000008
 30
0.0
 11
553.3758865248223
 21
10.0
 31
0.0
  0
LINE
  5
188
330
15
100
AcDbEntity
 67
     1
  8
ZUWAKU
100
AcDbLine
 10
522.7517730496447
 20
191.1445336339673
 30
0.0
 11
584.0
 21
191.1445336339674
 31
0.0
  0
MTEXT
  5
1E31
330
15
100
AcDbEntity
 67
     1
  8
ZUWAKU
  6
Continuous
 48
100.0
100
AcDbMText
 10
529.8372516711006
 20
203.7228089578061
 30
0.0
 40
6.0
 41
61.24819999999999
 71
     1
 72
     5
  1
\fＭＳ Ｐゴシック|b0|i0|c128|p2;高砂建設（株）
 73
     1
 44
1.0
  0
LINE
  5
1E33
330
15
100
AcDbEntity
 67
     1
  8
ZUWAKU
100
AcDbLine
 10
522.7517730496447
 20
178.5504516688046
 30
0.0
 11
584.0
 21
178.5504516688048
 31
0.0
  0
MTEXT
  5
1E34
330
15
100
AcDbEntity
 67
     1
  8
ZUWAKU
  6
Continuous
 48
100.0
100
AcDbMText
 10
530.476802284062
 20
187.3946682204404
 30
0.0
 40
4.0
 41
61.24819999999999
 71
     1
 72
     5
  1
\fＭＳ Ｐゴシック|b0|i0|c128|p2;　６００ｔ 積　台船
 73
     1
 44
1.0
  0
MTEXT
  5
1E3D
330
15
100
AcDbEntity
 67
     1
  8
ZUWAKU
  6
Continuous
 48
100.0
100
AcDbMText
 10
565.0178760791187
 20
171.2867873107553
 30
0.0
 40
8.0
 41
61.24819999999999
 71
     1
 72
     1
  1
\fＭＳ Ｐゴシック|b0|i0|c128|p2;一\P般\P配\P置\P図
 73
     1
 44
1.0
  0
MTEXT
  5
1E3E
330
15
100
AcDbEntity
 67
     1
  8
ZUWAKU
  6
Continuous
 48
100.0
100
AcDbMText
 10
523.7968692979843
 20
31.92791581718154
 30
0.0
 40
4.0
 41
13.9486
 71
     1
 72
     5
  1
\fＭＳ Ｐゴシック|b0|i0|c128|p2;尺度
 73
     1
 44
1.0
  0
MTEXT
  5
1E40
330
15
100
AcDbEntity
 67
     1
  8
ZUWAKU
  6
Continuous
 48
100.0
100
AcDbMText
 10
551.0330806322738
 20
31.33690910072676
 30
0.0
 40
4.0
 41
11.6454
 71
     1
 72
     5
  1
1
 73
     1
 44
1.0
  0
MTEXT
  5
1E41
330
15
100
AcDbEntity
 67
     1
  8
ZUWAKU
  6
Continuous
 48
100.0
100
AcDbMText
 10
559.9910492346992
 20
27.57960453124645
 30
0.0
 40
4.0
 41
11.6454
 71
     1
 72
     5
  1
xxx
 73
     1
 44
1.0
  0
MTEXT
  5
1E42
330
15
100
AcDbEntity
 67
     1
  8
ZUWAKU
  6
Continuous
 48
100.0
100
AcDbMText
 10
555.2134656256323
 20
28.95004510316039
 30
0.0
 40
4.0
 41
11.6454
 71
     1
 72
     5
  1
/
 73
     1
 44
1.0
  0
MTEXT
  5
1E43
330
15
100
AcDbEntity
 67
     1
  8
ZUWAKU
  6
Continuous
 48
100.0
100
AcDbMText
 10
555.512069363993
 20
18.95505932528029
 30
0.0
 40
3.0
 41
10.6383
 71
     1
 72
     5
  1
H,M
 73
     1
 44
1.0
  0
MTEXT
  5
1F3F
330
15
100
AcDbEntity
 67
     1
  8
ZUWAKU
  6
Continuous
 48
100.0
100
AcDbMText
 10
492.2847935734875
 20
379.8610045542156
 30
0.0
 40
3.5
 41
82.7834
 71
     1
 72
     5
  1
PRINCIPAL DIMENSIONS\P\PLENGTH  (O,A)   30.00\PBREADTH (MLD)  12.00\PDEPTH   (MLD)   \PDRAFT           
 73
     1
 44
1.0
  0
MTEXT
  5
2855
330
15
100
AcDbEntity
 67
     1
  8
ZUWAKU
  6
Continuous
 48
100.0
100
AcDbMText
 10
547.5609977454509
 20
126.0015819568076
 30
0.0
 40
10.0
 41
61.24819999999999
 71
     1
 72
     1
  1
\fＭＳ Ｐゴシック|b0|i0|c128|p2;６\P９\P６\P１
 73
     1
 44
1.0
  0
MTEXT
  5
2899
330
15
100
AcDbEntity
 67
     1
  8
OBJECT
  6
Continuous
 48
100.0
100
AcDbMText
 10
540.7958354010161
 20
350.7235495070387
 30
0.0
 40
3.5
 41
17.411
 71
     1
 72
     5
  1
0.50
 73
     1
 44
1.0
  0
MTEXT
  5
289A
330
15
100
AcDbEntity
 67
     1
  8
OBJECT
  6
Continuous
 48
100.0
100
AcDbMText
 10
539.7717406356863
 20
356.4528715984626
 30
0.0
 40
3.5
 41
17.411
 71
     1
 72
     5
  1
2.70
 73
     1
 44
1.0
  0
LINE
  5
289C
330
15
100
AcDbEntity
 67
     1
  8
OBJECT
  6
Continuous
 48
100.0
100
AcDbLine
 10
491.2479410949941
 20
375.0426651825646
 30
0.0
 11
557.8717542876488
 21
375.0426651825646
 31
0.0
  0
MTEXT
  5
4428
330
15
100
AcDbEntity
 67
     1
  8
ZUWAKU
  6
Continuous
 48
100.0
100
AcDbMText
 10
531.3046262647199
 20
126.0016750651038
 30
0.0
 40
10.0
 41
61.24819999999999
 71
     1
 72
     1
  1
\fＭＳ Ｐゴシック|b0|i0|c128|p2;６\P９\P６\P２
 73
     1
 44
1.0
  0
ENDSEC
  0
SECTION
  2
OBJECTS
  0
DICTIONARY
  5
C
330
0
100
AcDbDictionary
281
     1
  3
ACAD_COLOR
350
4B70
  3
ACAD_GROUP
350
D
  3
ACAD_LAYOUT
350
49D2
  3
ACAD_MATERIAL
350
4B6F
  3
ACAD_MLINESTYLE
350
1B
  3
ACAD_PLOTSETTINGS
350
49D3
  3
ACAD_PLOTSTYLENAME
350
49D0
  3
ACAD_TABLESTYLE
350
4B71
  3
ACDBVARIABLEDICTIONARY
350
E5
  3
CONTENTDICTIONARY
350
23
  3
DRAWINGVARIABLESDICT
350
282
  0
DICTIONARY
  5
4B5F
330
18
100
AcDbDictionary
280
     1
281
     1
  3
ACAD_LAYOUTSELFREF
360
4B60
  0
DICTIONARY
  5
4B5D
330
15
100
AcDbDictionary
280
     1
281
     1
  3
ACAD_LAYOUTSELFREF
360
4B5E
  0
DICTIONARY
  5
4B70
102
{ACAD_REACTORS
330
C
102
}
330
C
100
AcDbDictionary
281
     1
  0
DICTIONARY
  5
D
102
{ACAD_REACTORS
330
C
102
}
330
C
100
AcDbDictionary
281
     1
  0
DICTIONARY
  5
49D2
102
{ACAD_REACTORS
330
C
102
}
330
C
100
AcDbDictionary
281
     1
  3
Model
350
49D4
  3
ﾚｲｱｳﾄ1
350
49D5
  0
DICTIONARY
  5
4B6F
102
{ACAD_REACTORS
330
C
102
}
330
C
100
AcDbDictionary
281
     1
  0
DICTIONARY
  5
1B
102
{ACAD_REACTORS
330
C
102
}
330
C
100
AcDbDictionary
281
     1
  3
STANDARD
350
1C
  0
DICTIONARY
  5
49D3
102
{ACAD_REACTORS
330
C
102
}
330
C
100
AcDbDictionary
281
     1
  0
ACDBDICTIONARYWDFLT
  5
49D0
102
{ACAD_REACTORS
330
C
102
}
330
C
100
AcDbDictionary
281
     1
  3
Normal
350
49D1
100
AcDbDictionaryWithDefault
340
49D1
  0
DICTIONARY
  5
4B71
102
{ACAD_REACTORS
330
C
102
}
330
C
100
AcDbDictionary
281
     1
  3
Standard
350
4B72
  0
DICTIONARY
  5
E5
102
{ACAD_REACTORS
330
C
102
}
330
C
100
AcDbDictionary
281
     1
  3
CTABLESTYLE
350
4B82
  3
DIMADEC
350
E6
  3
SORTENTS
350
B67
  0
DICTIONARY
  5
23
102
{ACAD_REACTORS
330
C
102
}
330
C
100
AcDbDictionary
281
     1
  0
DICTIONARY
  5
282
102
{ACAD_REACTORS
330
C
102
}
330
C
100
AcDbDictionary
281
     1
1001
DRAWINGVARIABLESXDATA
1000
POLARANG
1000
0.261799
1000
POLARMODE
1000
1
  0
XRECORD
  5
4B60
102
{ACAD_REACTORS
330
4B5F
102
}
330
4B5F
100
AcDbXrecord
280
     1
340
18
  0
XRECORD
  5
4B5E
102
{ACAD_REACTORS
330
4B5D
102
}
330
4B5D
100
AcDbXrecord
280
     1
340
15
  0
LAYOUT
  5
49D4
102
{ACAD_REACTORS
330
49D2
102
}
330
49D2
100
AcDbPlotSettings
  1

  2
C:\Program Files\AutoCAD LT 2000i\plotters\DWF Classic.pc3
  4

  6

 40
0.0
 41
0.0
 42
0.0
 43
0.0
 44
0.0
 45
0.0
 46
0.0
 47
0.0
 48
0.0
 49
0.0
140
0.0
141
0.0
142
1.0
143
1.0
 70
  1712
 72
     0
 73
     0
 74
     0
  7
C:\Program Files\AutoCAD LT 2000i\Plot Styles\1.ctb
 75
     0
147
1.0
 76
     0
 77
     2
 78
   300
148
0.0
149
0.0
100
AcDbLayout
  1
Model
 70
     1
 71
     0
 10
0.0
 20
0.0
 11
12.0
 21
9.0
 12
0.0
 22
0.0
 32
0.0
 14
0.0
 24
0.0
 34
0.0
 15
0.0
 25
0.0
 35
0.0
146
0.0
 13
0.0
 23
0.0
 33
0.0
 16
1.0
 26
0.0
 36
0.0
 17
0.0
 27
1.0
 37
0.0
 76
     0
330
18
  0
LAYOUT
  5
49D5
102
{ACAD_REACTORS
330
49D2
102
}
330
49D2
100
AcDbPlotSettings
  1

  2
Canon LBP-740.pc3
  4
A4
  6

 40
5.873749732971191
 41
5.873747825622558
 42
5.873748779296875
 43
5.873748779296875
 44
209.9733276367187
 45
296.9259948730469
 46
0.0
 47
0.0
 48
0.0
 49
0.0
140
0.0
141
0.0
142
1.0
143
2.096373980201864
 70
   688
 72
     1
 73
     1
 74
     1
  7
1.ctb
 75
     0
147
0.4770141250769139
 76
     0
 77
     2
 78
   300
148
-0.9588479762421684
149
-2.472140497919554
100
AcDbLayout
  1
ﾚｲｱｳﾄ1
 70
     1
 71
     1
 10
-11.35472613091826
 20
-9.841435608498901
 11
611.1132035664894
 21
430.3411849855193
 12
0.0
 22
0.0
 32
0.0
 14
0.9738180077063134
 24
2.470191766602852
 34
-0.0000000349181948
 15
593.0383076831263
 25
418.0295596601772
 35
0.0000000814935746
146
0.0
 13
0.0
 23
0.0
 33
0.0
 16
1.0
 26
0.0
 36
0.0
 17
0.0
 27
1.0
 37
0.0
 76
     0
330
15
331
36
  0
MLINESTYLE
  5
1C
102
{ACAD_REACTORS
330
1B
102
}
330
1B
100
AcDbMlineStyle
  2
STANDARD
 70
     0
  3

 62
   256
 51
90.0
 52
90.0
 71
     2
 49
0.5
 62
   256
  6
BYLAYER
 49
-0.5
 62
   256
  6
BYLAYER
  0
ACDBPLACEHOLDER
  5
49D1
102
{ACAD_REACTORS
330
49D0
102
}
330
49D0
  0
TABLESTYLE
  5
4B72
102
{ACAD_REACTORS
330
4B71
102
}
330
4B71
100
AcDbTableStyle
  3
Standard
 70
     0
 71
     8
 40
1.5
 41
1.5
280
     0
281
     0
  7
STANDARD
140
4.5
170
     2
 62
     0
 63
     7
283
     0
274
    -2
284
     1
 64
     0
275
    -2
285
     1
 65
     0
276
    -2
286
     1
 66
     0
277
    -2
287
     1
 67
     0
278
    -2
288
     1
 68
     0
279
    -2
289
     1
 69
     0
  7
STANDARD
140
6.0
170
     5
 62
     0
 63
     7
283
     0
274
    -2
284
     1
 64
     0
275
    -2
285
     1
 65
     0
276
    -2
286
     1
 66
     0
277
    -2
287
     1
 67
     0
278
    -2
288
     1
 68
     0
279
    -2
289
     1
 69
     0
  7
STANDARD
140
4.5
170
     5
 62
     0
 63
     7
283
     0
274
    -2
284
     1
 64
     0
275
    -2
285
     1
 65
     0
276
    -2
286
     1
 66
     0
277
    -2
287
     1
 67
     0
278
    -2
288
     1
 68
     0
279
    -2
289
     1
 69
     0
  0
DICTIONARYVAR
  5
4B82
102
{ACAD_REACTORS
330
E5
102
}
330
E5
100
DictionaryVariables
280
     0
  1
STANDARD
  0
DICTIONARYVAR
  5
E6
102
{ACAD_REACTORS
330
E5
102
}
330
E5
100
DictionaryVariables
280
     0
  1
0
  0
DICTIONARYVAR
  5
B67
102
{ACAD_REACTORS
330
E5
102
}
330
E5
100
DictionaryVariables
280
     0
  1
96
  0
ENDSEC
  0
EOF
